(Classical, Baroque, Authentic, Violin) Antonio Lucio Vivaldi - Concerti per due violini e archi I [Il Pomo d'Oro, Riccardo Minasi, Dmitry Sinkovsky / Дмитрий Синьковский], Naive 2013, FLAC (tracks+.cue), lossless


Статистика раздачи [Обновить пиров]
Размер:  317 MB   |    Зарегистрирован:  1 год 1 месяц   |    Скачан:  0 раз

Полного источника не было: Никогда

Личеров:  1  [  0 KB/s  ]   Подробная статистика пиров
 
   
 
 
 

[Цитировать]

Antonio Vivaldi
Concerti per due violini e archi I
RV 508, 509, 510, 515, 517, 523

The Vivaldi Edition: Concerti per due violini. Vol. 1.-- Жанр: Classical, Baroque, Authentic, Violin
Страна-производитель диска: Франция
Год издания: 2013
Дата выхода: 18.11.2013
Лейбл: Naive
Номер в каталоге: OP 30550
Аудиокодек: FLAC
Тип рипа: tracks+.cue
Битрейт аудио: lossless
Продолжительность: 00:53:41
Наличие сканов: PDF BOOKLET
Источник: релизёрIl Pomo d'Oro
Riccardo Minasi e Dmitry Sinkovsky violinisti

Треклист

01. RV 523 - Concerto in La minore per due violini, archi e basso continuo - I. Allegro molto [00:03:53]
02. II. Largo [00:02:51]
03. III. Allegro [00:02:52]
04. RV 510 - Concerto in Do minore per due violini, archi e basso continuo - I. Allegro [00:02:38]
05. II. Largo [00:01:38]
06. III. Allegro [00:02:18]
07. RV 509 - Concerto in Do minore per due violini, archi e basso continuo - I. Allegro ma poco e cantabile [00:03:30]
08. II. Andante molto [00:02:16]
09. III. Allegro [00:02:49]
10. RV 517 - Concerto in Sol minore per due violini, archi e basso continuo - I. Allegro [00:03:30]
11. II. Andante [00:01:24]
12. III. Allegro [00:02:58]
13. RV 515 - Concerto in Mi bemolle maggiore per due violini, archi e basso continuo - I. Allegro [00:04:12]
14. II. Largo [00:03:11]
15. III. Allegro [00:03:36]
16. RV 508 - Concerto in Do maggiore per due violini, archi e basso continuo - I. Allegro [00:04:28]
17. II. Largo [00:02:24]
18. III. Allegro [00:03:07]

LOG EAC

Exact Audio Copy V1.0 beta 3 from 29. August 2011
Отчёт EAC об извлечении
Il Pomo d'Oro, Riccardo Minasi e Dmitry Sinkovsky [violinisti] / The Vivaldi Edition. Concerti per due violini. Vol. 1. Concerti per due violini e archi I [Naive 2013].
Дисковод: ATAPI iHAS324 A Adapter: 6 ID: 0
Режим чтения : Достоверность
Использование точного потока : Да
Отключение кэша аудио : Да
Использование указателей C2 : Нет
Коррекция смещения при чтении : 6
Способность читать области Lead-in и Lead-out : Нет
Заполнение пропущенных сэмплов тишиной : Да
Удаление блоков с тишиной в начале и конце : Нет
При вычислениях CRC использовались нулевые сэмплы : Да
Интерфейс : Встроенный Win32-интерфейс для Win NT/2000
Обработка зазоров : Добавлено к предыдущему треку
Выходной формат : Пользовательский кодировщик
Выбранный битрейт : 128 kBit/s
Качество : Высокий
Добавление ID3-тега : Нет
Утилита сжатия : C:\Program Files (x86)\Exact Audio Copy\Flac\flac.exe
Дополнительные параметры : -V -8 -T "Date=%year%" -T "Genre=%genre%" %source%
TOC извлечённого CD
Трек | Старт | Длительность | Начальный сектор | Конечный сектор
---------------------------------------------------------------------
1 | 0:00.00 | 3:53.17 | 0 | 17491
2 | 3:53.17 | 2:51.16 | 17492 | 30332
3 | 6:44.33 | 2:52.56 | 30333 | 43288
4 | 9:37.14 | 2:38.23 | 43289 | 55161
5 | 12:15.37 | 1:38.06 | 55162 | 62517
6 | 13:53.43 | 2:18.57 | 62518 | 72924
7 | 16:12.25 | 3:30.15 | 72925 | 88689
8 | 19:42.40 | 2:16.19 | 88690 | 98908
9 | 21:58.59 | 2:49.35 | 98909 | 111618
10 | 24:48.19 | 3:30.37 | 111619 | 127405
11 | 28:18.56 | 1:24.07 | 127406 | 133712
12 | 29:42.63 | 2:58.03 | 133713 | 147065
13 | 32:40.66 | 4:12.33 | 147066 | 165998
14 | 36:53.24 | 3:11.60 | 165999 | 180383
15 | 40:05.09 | 3:36.05 | 180384 | 196588
16 | 43:41.14 | 4:28.71 | 196589 | 216759
17 | 48:10.10 | 2:24.00 | 216760 | 227559
18 | 50:34.10 | 3:07.13 | 227560 | 241597
Трек 1
Имя файла C:\Desktop\Новая папка\01. Concerto RV 523 in La minore - I. Allegro molto.wav
Длина предзазора 0:00:02.00
Пиковый уровень 98.2 %
Скорость извлечения 5.0 X
Качество трека 100.0 %
CRC теста 0D098647
CRC копии 0D098647
Копирование... OK
Трек 2
Имя файла C:\Desktop\Новая папка\02. Concerto RV 523 in La minore - II. Largo.wav
Пиковый уровень 57.1 %
Скорость извлечения 5.2 X
Качество трека 100.0 %
CRC теста 5766353C
CRC копии 5766353C
Копирование... OK
Трек 3
Имя файла C:\Desktop\Новая папка\03. Concerto RV 523 in La minore - III. Allegro.wav
Пиковый уровень 97.7 %
Скорость извлечения 5.6 X
Качество трека 100.0 %
CRC теста 51F029F2
CRC копии 51F029F2
Копирование... OK
Трек 4
Имя файла C:\Desktop\Новая папка\04. Concerto RV 510 in Do minore - I. Allegro.wav
Пиковый уровень 97.5 %
Скорость извлечения 5.8 X
Качество трека 100.0 %
CRC теста 05EA7B59
CRC копии 05EA7B59
Копирование... OK
Трек 5
Имя файла C:\Desktop\Новая папка\05. Concerto RV 510 in Do minore - II. Largo.wav
Пиковый уровень 73.5 %
Скорость извлечения 5.4 X
Качество трека 100.0 %
CRC теста B6FBF075
CRC копии B6FBF075
Копирование... OK
Трек 6
Имя файла C:\Desktop\Новая папка\06. Concerto RV 510 in Do minore - III. Allegro.wav
Пиковый уровень 97.1 %
Скорость извлечения 5.0 X
Качество трека 99.9 %
CRC теста 75A31D50
CRC копии 75A31D50
Копирование... OK
Трек 7
Имя файла C:\Desktop\Новая папка\07. Concerto RV 509 in Do minore - I. Allegro ma poco e cantabile.wav
Пиковый уровень 97.6 %
Скорость извлечения 6.9 X
Качество трека 100.0 %
CRC теста 72E1894C
CRC копии 72E1894C
Копирование... OK
Трек 8
Имя файла C:\Desktop\Новая папка\08. Concerto RV 509 in Do minore - II. Andante molto.wav
Пиковый уровень 76.2 %
Скорость извлечения 6.6 X
Качество трека 100.0 %
CRC теста A614D302
CRC копии A614D302
Копирование... OK
Трек 9
Имя файла C:\Desktop\Новая папка\09. Concerto RV 509 in Do minore - III. Allegro.wav
Пиковый уровень 97.9 %
Скорость извлечения 7.1 X
Качество трека 100.0 %
CRC теста C84D5BC1
CRC копии C84D5BC1
Копирование... OK
Трек 10
Имя файла C:\Desktop\Новая папка\10. Concerto RV 517 in Sol minore - I. Allegro.wav
Пиковый уровень 97.6 %
Скорость извлечения 6.6 X
Качество трека 99.9 %
CRC теста 62B4ED4D
CRC копии 62B4ED4D
Копирование... OK
Трек 11
Имя файла C:\Desktop\Новая папка\11. Concerto RV 517 in Sol minore - II. Andante.wav
Пиковый уровень 77.5 %
Скорость извлечения 6.4 X
Качество трека 100.0 %
CRC теста 58D57F84
CRC копии 58D57F84
Копирование... OK
Трек 12
Имя файла C:\Desktop\Новая папка\12. Concerto RV 517 in Sol minore - III. Allegro.wav
Пиковый уровень 97.6 %
Скорость извлечения 7.9 X
Качество трека 100.0 %
CRC теста DAAF24F3
CRC копии DAAF24F3
Копирование... OK
Трек 13
Имя файла C:\Desktop\Новая папка\13. Concerto RV 515 in Mi bemolle maggiore - I. Allegro.wav
Пиковый уровень 97.7 %
Скорость извлечения 8.7 X
Качество трека 100.0 %
CRC теста C660648F
CRC копии C660648F
Копирование... OK
Трек 14
Имя файла C:\Desktop\Новая папка\14. Concerto RV 515 in Mi bemolle maggiore - II. Largo.wav
Пиковый уровень 86.1 %
Скорость извлечения 8.6 X
Качество трека 100.0 %
CRC теста 07503164
CRC копии 07503164
Копирование... OK
Трек 15
Имя файла C:\Desktop\Новая папка\15. Concerto RV 515 in Mi bemolle maggiore - III. Allegro.wav
Пиковый уровень 97.7 %
Скорость извлечения 8.9 X
Качество трека 100.0 %
CRC теста 1FC544D9
CRC копии 1FC544D9
Копирование... OK
Трек 16
Имя файла C:\Desktop\Новая папка\16. Concerto RV 508 in Do maggiore - I. Allegro.wav
Пиковый уровень 97.7 %
Скорость извлечения 9.5 X
Качество трека 100.0 %
CRC теста 4A00C676
CRC копии 4A00C676
Копирование... OK
Трек 17
Имя файла C:\Desktop\Новая папка\17. Concerto RV 508 in Do maggiore - II. Largo.wav
Пиковый уровень 58.5 %
Скорость извлечения 8.7 X
Качество трека 100.0 %
CRC теста DD0E7AAC
CRC копии DD0E7AAC
Копирование... OK
Трек 18
Имя файла C:\Desktop\Новая папка\18. Concerto RV 508 in Do maggiore - III. Allegro.wav
Пиковый уровень 97.6 %
Скорость извлечения 9.5 X
Качество трека 100.0 %
CRC теста 815B7ADB
CRC копии 815B7ADB
Копирование... OK
Ошибок не произошло
Конец отчёта
==== Контрольная сумма отчёта B5C512EC99037AE55214F9512A9B5FA847B4C489DFDECA77F080717E18795242 ====

.CUE

REM GENRE "Musica barocca"
REM DATE 2013
REM DISCID F50C9512
REM COMMENT "ExactAudioCopy v1.0b3"
PERFORMER "Il Pomo d'Oro, Riccardo Minasi e Dmitry Sinkovsky [violinisti]"
TITLE "The Vivaldi Edition. Concerti per due violini. Vol. 1. Concerti per due violi..."
FILE "01 Concerto RV 523 in La minore - I. Allegro molto.flac" WAVE
TRACK 01 AUDIO
TITLE "Concerto RV 523 in La minore - I. Allegro molto"
PERFORMER "Il Pomo d'Oro, Riccardo Minasi e Dmitry Sinkovsky [violinisti]"
INDEX 01 00:00:00
FILE "02 Concerto RV 523 in La minore - II. Largo.flac" WAVE
TRACK 02 AUDIO
TITLE "Concerto RV 523 in La minore - II. Largo"
PERFORMER "Il Pomo d'Oro, Riccardo Minasi e Dmitry Sinkovsky [violinisti]"
INDEX 01 00:00:00
FILE "03 Concerto RV 523 in La minore - III. Allegro.flac" WAVE
TRACK 03 AUDIO
TITLE "Concerto RV 523 in La minore - III. Allegro"
PERFORMER "Il Pomo d'Oro, Riccardo Minasi e Dmitry Sinkovsky [violinisti]"
INDEX 01 00:00:00
FILE "04 Concerto RV 510 in Do minore - I. Allegro.flac" WAVE
TRACK 04 AUDIO
TITLE "Concerto RV 510 in Do minore - I. Allegro"
PERFORMER "Il Pomo d'Oro, Riccardo Minasi e Dmitry Sinkovsky [violinisti]"
INDEX 01 00:00:00
FILE "05 Concerto RV 510 in Do minore - II. Largo.flac" WAVE
TRACK 05 AUDIO
TITLE "Concerto RV 510 in Do minore - II. Largo"
PERFORMER "Il Pomo d'Oro, Riccardo Minasi e Dmitry Sinkovsky [violinisti]"
INDEX 01 00:00:00
FILE "06 Concerto RV 510 in Do minore - III. Allegro.flac" WAVE
TRACK 06 AUDIO
TITLE "Concerto RV 510 in Do minore - III. Allegro"
PERFORMER "Il Pomo d'Oro, Riccardo Minasi e Dmitry Sinkovsky [violinisti]"
INDEX 01 00:00:00
FILE "07 Concerto RV 509 in Do minore - I. Allegro ma poco e cantabile.flac" WAVE
TRACK 07 AUDIO
TITLE "Concerto RV 509 in Do minore - I. Allegro ma poco e cantabile"
PERFORMER "Il Pomo d'Oro, Riccardo Minasi e Dmitry Sinkovsky [violinisti]"
INDEX 01 00:00:00
FILE "08 Concerto RV 509 in Do minore - II. Andante molto.flac" WAVE
TRACK 08 AUDIO
TITLE "Concerto RV 509 in Do minore - II. Andante molto"
PERFORMER "Il Pomo d'Oro, Riccardo Minasi e Dmitry Sinkovsky [violinisti]"
INDEX 01 00:00:00
FILE "09 Concerto RV 509 in Do minore - III. Allegro.flac" WAVE
TRACK 09 AUDIO
TITLE "Concerto RV 509 in Do minore - III. Allegro"
PERFORMER "Il Pomo d'Oro, Riccardo Minasi e Dmitry Sinkovsky [violinisti]"
INDEX 01 00:00:00
FILE "10 Concerto RV 517 in Sol minore - I. Allegro.flac" WAVE
TRACK 10 AUDIO
TITLE "Concerto RV 517 in Sol minore - I. Allegro"
PERFORMER "Il Pomo d'Oro, Riccardo Minasi e Dmitry Sinkovsky [violinisti]"
INDEX 01 00:00:00
FILE "11 Concerto RV 517 in Sol minore - II. Andante.flac" WAVE
TRACK 11 AUDIO
TITLE "Concerto RV 517 in Sol minore - II. Andante"
PERFORMER "Il Pomo d'Oro, Riccardo Minasi e Dmitry Sinkovsky [violinisti]"
INDEX 01 00:00:00
FILE "12 Concerto RV 517 in Sol minore - III. Allegro.flac" WAVE
TRACK 12 AUDIO
TITLE "Concerto RV 517 in Sol minore - III. Allegro"
PERFORMER "Il Pomo d'Oro, Riccardo Minasi e Dmitry Sinkovsky [violinisti]"
INDEX 01 00:00:00
FILE "13 Concerto RV 515 in Mi bemolle maggiore - I. Allegro.flac" WAVE
TRACK 13 AUDIO
TITLE "Concerto RV 515 in Mi bemolle maggiore - I. Allegro"
PERFORMER "Il Pomo d'Oro, Riccardo Minasi e Dmitry Sinkovsky [violinisti]"
INDEX 01 00:00:00
FILE "14 Concerto RV 515 in Mi bemolle maggiore - II. Largo.flac" WAVE
TRACK 14 AUDIO
TITLE "Concerto RV 515 in Mi bemolle maggiore - II. Largo"
PERFORMER "Il Pomo d'Oro, Riccardo Minasi e Dmitry Sinkovsky [violinisti]"
INDEX 01 00:00:00
FILE "15 Concerto RV 515 in Mi bemolle maggiore - III. Allegro.flac" WAVE
TRACK 15 AUDIO
TITLE "Concerto RV 515 in Mi bemolle maggiore - III. Allegro"
PERFORMER "Il Pomo d'Oro, Riccardo Minasi e Dmitry Sinkovsky [violinisti]"
INDEX 01 00:00:00
FILE "16 Concerto RV 508 in Do maggiore - I. Allegro.flac" WAVE
TRACK 16 AUDIO
TITLE "Concerto RV 508 in Do maggiore - I. Allegro"
PERFORMER "Il Pomo d'Oro, Riccardo Minasi e Dmitry Sinkovsky [violinisti]"
INDEX 01 00:00:00
FILE "17 Concerto RV 508 in Do maggiore - II. Largo.flac" WAVE
TRACK 17 AUDIO
TITLE "Concerto RV 508 in Do maggiore - II. Largo"
PERFORMER "Il Pomo d'Oro, Riccardo Minasi e Dmitry Sinkovsky [violinisti]"
INDEX 01 00:00:00
FILE "18 Concerto RV 508 in Do maggiore - III. Allegro.flac" WAVE
TRACK 18 AUDIO
TITLE "Concerto RV 508 in Do maggiore - III. Allegro"
PERFORMER "Il Pomo d'Oro, Riccardo Minasi e Dmitry Sinkovsky [violinisti]"
INDEX 01 00:00:00
-
[teatrix.ru].t9973.torrent 
Торрент: Зарегистрирован [ 2015-10-25 20:37 ] · 2CA64C0D9F2A316A0DE3E6EE25B74DA05705899C

Скачать .torrent

Скачать

15 KB

Статус: проверено
Скачан: 0 раз
Размер: 317 MB
terms.php



Быстрый ответ

Имя:

      
Для отправки сообщений необходимо включить JavaScript
Показать сообщения:    

Текущее время: 08-Дек 19:11

Часовой пояс: UTC + 3


Вы можете начинать темы
Вы можете отвечать на сообщения
Вы не можете редактировать свои сообщения
Вы не можете удалять свои сообщения
Вы не можете голосовать в опросах
Вы не можете прикреплять файлы к сообщениям
Вы можете скачивать файлы