(Classical, contemporary) Krzysztof Penderecki - Works for Cellos and Orchestra: Concerto Grosso No. 1; Largo, Sonata for Cello & Orchestra - Монигетти, Noras, Kwiatkowski; Warsaw National PO, Antoni Wit - 2008, FLAC (image+.cue) lossless


Статистика раздачи [Обновить пиров]
Размер:  284 MB   |    Зарегистрирован:  1 год 1 месяц   |    Скачан:  0 раз

Полного источника не было: Никогда

Личеров:  1  [  0 KB/s  ]   Подробная статистика пиров
 
   
 
 
 

[Цитировать]

Krzysztof Penderecki - Works for Cellos and Orchestra - Ivan Monighetti, Arto Noras, Rafał Kwiatkowski; Warsaw National Philharmonic Orchestra, Antoni Wit
Жанр: Classical, contemporary
Год издания диска: 2008
Издатель (лейбл): Naxos
Номер по каталогу: 8.570509
Дата записи: 2007
Аудиокодек: FLAC
Тип рипа: image+.cue
Битрейт аудио: lossless
Продолжительность: 74:08
Источник: собственный рип
Наличие сканов в содержимом раздачи: да
Треклист:
Krzysztof Penderecki (b. 1933)
[1]-[6] Concerto Grosso No. 1 for 3 Cellos and Orchestra (2000) 1
[7]-[9] Largo for Cello and Orchestra (2003) 2
[10]-[11] Sonata for Cello and Orchestra (1964) 3
Исполнители:
Ivan Monighetti (1, 3), Arto Noras (1, 2), Rafał Kwiatkowski (1) cellos
Warsaw National Philharmonic Orchestra • Antoni Wit

Лог создания рипа

Exact Audio Copy V1.0 beta 3 from 29. August 2011
EAC extraction logfile from 19. January 2014, 20:12
Warsaw National Philharmonic Orchestra, Antoni Wit / Penderecki - Works for Cellos & Orchestra
Used drive : HL-DT-STDVDRAM GSA-4083N Adapter: 1 ID: 0
Read mode : SecureUtilize accurate stream : YesDefeat audio cache : YesMake use of C2 pointers : No
Read offset correction : 667Overread into Lead-In and Lead-Out : NoFill up missing offset samples with silence : YesDelete leading and trailing silent blocks : NoNull samples used in CRC calculations : YesUsed interface : Native Win32 interface for Win NT & 2000
Used output format : User Defined EncoderSelected bitrate : 896 kBit/sQuality : HighAdd ID3 tag : NoCommand line compressor : C:\Program Files\Exact Audio Copy\Flac\flac.exeAdditional command line options : -V -8 %source%
TOC of the extracted CD
Track | Start | Length | Start sector | End sector --------------------------------------------------------- 1 | 0:00.00 | 8:07.66 | 0 | 36590 2 | 8:07.66 | 4:28.42 | 36591 | 56732 3 | 12:36.33 | 4:36.42 | 56733 | 77474 4 | 17:13.00 | 4:48.69 | 77475 | 99143 5 | 22:01.69 | 9:18.62 | 99144 | 141055 6 | 31:20.56 | 4:19.01 | 141056 | 160481 7 | 35:39.57 | 10:23.34 | 160482 | 207240 8 | 46:03.16 | 10:45.00 | 207241 | 255615 9 | 56:48.16 | 6:21.74 | 255616 | 284264 10 | 63:10.15 | 6:27.70 | 284265 | 313359 11 | 69:38.10 | 4:27.65 | 313360 | 333449
Range status and errors
Selected range
Filename J:\New Music\Naxos_8.570509 - Penderecki - Works for Cellos and Orchestra\Penderecki - Works for Cellos & Orchestra.wav
Peak level 99.4 % Extraction speed 2.6 X Range quality 100.0 % Test CRC 2D84147B Copy CRC 2D84147B Copy OK
No errors occurred
AccurateRip summary
Track 1 accurately ripped (confidence 7) [F4CE1E06] (AR v2)Track 2 accurately ripped (confidence 7) [52FA5BF8] (AR v2)Track 3 accurately ripped (confidence 7) [C58024F4] (AR v2)Track 4 accurately ripped (confidence 7) [601E9E32] (AR v2)Track 5 accurately ripped (confidence 7) [B0EB62DD] (AR v2)Track 6 accurately ripped (confidence 7) [6968E390] (AR v2)Track 7 accurately ripped (confidence 7) [E9E0848F] (AR v2)Track 8 accurately ripped (confidence 7) [9E1F6DAF] (AR v2)Track 9 accurately ripped (confidence 7) [D97B690E] (AR v2)Track 10 accurately ripped (confidence 7) [1BC02B5F] (AR v2)Track 11 accurately ripped (confidence 7) [A7EE17A6] (AR v2)
All tracks accurately ripped
End of status report
==== Log checksum 21F09A2B489783E586DD2FBCE2653F4F430EAE0135AC5046710A6BAD9AE35451 ====
[teatrix.ru].t9974.torrent 
Торрент: Зарегистрирован [ 2015-10-25 20:37 ] · 235761E661E9862B723D67127AE163F7E4F27350

Скачать .torrent

Скачать

24 KB

Статус: проверено
Скачан: 0 раз
Размер: 284 MB
terms.php



Быстрый ответ

Имя:

      
Для отправки сообщений необходимо включить JavaScript
Показать сообщения:    

Текущее время: 10-Дек 11:58

Часовой пояс: UTC + 3


Вы можете начинать темы
Вы можете отвечать на сообщения
Вы не можете редактировать свои сообщения
Вы не можете удалять свои сообщения
Вы не можете голосовать в опросах
Вы не можете прикреплять файлы к сообщениям
Вы можете скачивать файлы