(Classical / Bassoon / Oboe / Clarinet / Concerto) Wolfgang Amadeus Mozart - Konzerte fur: Fagott • Oboe • Klarinette (Stepan Turnovsky, Martin Gabriel, Ernst Ottensamer, Johannes Wildner, 1989) - 1990, FLAC (tracks+.cue) lossless


Статистика раздачи [Обновить пиров]
Размер:  269 MB   |    Зарегистрирован:  1 год 1 месяц   |    Скачан:  0 раз

Полного источника не было: Никогда

 
   
 
 
 

[Цитировать]

Wolfgang Amadeus Mozart | Вольфганг Амадей Моцарт
(1756–1791)



Konzert für Fagott und Orchester | Konzert für Oboe und Orchester
Konzert für Klarinette und Orchester

Концерт для фагота с оркестром | Концерт для гобоя с оркестром | Концерт для кларнета с оркестром


Stepan Turnovsky bassoonMartin Gabriel oboeErnst Ottensamer clarinet
Wiener Mozart-Akademie
Johannes Wildner conductor


Жанр: Classical / Bassoon / Oboe / Clarinet / Concerto
Даты и место записи: Haydn Hall, Hainburg, 1–15 October 1989
Формат записи: DDD, Stereo
Год издания диска: 1990
Издатель (лейбл): Naxos
Номер по каталогу: 8.550345
Аудиокодек: FLAC
Тип рипа: tracks+.cue
Битрейт аудио: lossless
Продолжительность: 1:08:16
Наличие сканов в содержимом раздачи: да
Источник: What.CD
Релизёр: keeper123


Tracklist / Треклист
Konzert für Fagott und Orchester B-dur, KV 191 (186e) - 17:37
I. Allegro - 6:41
  • II. Andante ma adagio - 6:36
  • III. Rondo: Tempo di Menuetto - 4:20Konzert für Oboe und Orchester C-dur, KV 314 (285d) - 20:56
    I. Allegro aperto - 7:14
  • II. Adagio non troppo - 7:37
  • III. Rondo: Allegretto - 6:05Konzert für Klarinette und Orchester A-dur, KV 622 - 29:43
    I. Allegro - 13:02
  • II. Adagio - 7:19
  • III. Rondo: Allegro - 9:22

    -

    EAC log / Отчёт EAC

    Exact Audio Copy V0.99 prebeta 5 from 4. May 2009
    EAC extraction logfile from 20. September 2009, 18:57
    Mozart / Bassoon Concerto, Oboe Concerto, Clarinet Concerto (Turnovsky, Gabriel, Ottensamer, Wildner)
    Used drive : TSSTcorpCDDVDW SH-S222A Adapter: 3 ID: 0
    Read mode : SecureUtilize accurate stream : YesDefeat audio cache : YesMake use of C2 pointers : No
    Read offset correction : 6Overread into Lead-In and Lead-Out : NoFill up missing offset samples with silence : YesDelete leading and trailing silent blocks : NoNull samples used in CRC calculations : YesUsed interface : Native Win32 interface for Win NT & 2000Gap handling : Appended to previous track
    Used output format : User Defined EncoderSelected bitrate : 320 kBit/sQuality : HighAdd ID3 tag : NoCommand line compressor : C:\Program Files\FLAC\flac.exeAdditional command line options : -8 -T "artist=%a" -T "title=%t" -T "album=%g" -T "date=%y" -T "tracknumber=%n" -T "genre=%m" %s
    TOC of the extracted CD
    Track | Start | Length | Start sector | End sector --------------------------------------------------------- 1 | 0:00.00 | 6:41.13 | 0 | 30087 2 | 6:41.13 | 6:36.02 | 30088 | 59789 3 | 13:17.15 | 4:20.00 | 59790 | 79289 4 | 17:37.15 | 7:14.05 | 79290 | 111844 5 | 24:51.20 | 7:36.48 | 111845 | 146092 6 | 32:27.68 | 6:05.22 | 146093 | 173489 7 | 38:33.15 | 13:01.73 | 173490 | 232137 8 | 51:35.13 | 7:19.02 | 232138 | 265064 9 | 58:54.15 | 9:21.50 | 265065 | 307189
    Track 1
    Filename W:\FLAC rips\Mozart - Bassoon Concerto, Oboe Concerto, Clarinet Concerto (Turnovsky, Gabriel, Ottensamer, Wildner) (1989)\01 - Concerto For Bassoon And Orchestra In B Flat Major, K.191, 1- Allegro.wav
    Pre-gap length 0:00:02.00
    Peak level 89.1 % Track quality 100.0 % Test CRC E5697D9E Copy CRC E5697D9E Track not present in AccurateRip database Copy OK
    Track 2
    Filename W:\FLAC rips\Mozart - Bassoon Concerto, Oboe Concerto, Clarinet Concerto (Turnovsky, Gabriel, Ottensamer, Wildner) (1989)\02 - Concerto For Bassoon And Orchestra In B Flat Major, K.191, 2- Andantema Adagio.wav
    Pre-gap length 0:00:02.20
    Peak level 45.3 % Track quality 100.0 % Test CRC 3CC0EC25 Copy CRC 3CC0EC25 Track not present in AccurateRip database Copy OK
    Track 3
    Filename W:\FLAC rips\Mozart - Bassoon Concerto, Oboe Concerto, Clarinet Concerto (Turnovsky, Gabriel, Ottensamer, Wildner) (1989)\03 - Concerto For Bassoon And Orchestra In B Flat Major, K.191, 3- Rondo-Tempo di Menuetto.wav
    Pre-gap length 0:00:01.96
    Peak level 97.7 % Track quality 99.9 % Test CRC 5B9A1B28 Copy CRC 5B9A1B28 Track not present in AccurateRip database Copy OK
    Track 4
    Filename W:\FLAC rips\Mozart - Bassoon Concerto, Oboe Concerto, Clarinet Concerto (Turnovsky, Gabriel, Ottensamer, Wildner) (1989)\04 - Concerto For Oboe And Orchestra In C Major, K.314, 1- Allegro aperto.wav
    Pre-gap length 0:00:06.62
    Peak level 97.7 % Track quality 100.0 % Test CRC 8D3C3591 Copy CRC 8D3C3591 Track not present in AccurateRip database Copy OK
    Track 5
    Filename W:\FLAC rips\Mozart - Bassoon Concerto, Oboe Concerto, Clarinet Concerto (Turnovsky, Gabriel, Ottensamer, Wildner) (1989)\05 - Concerto For Oboe And Orchestra In C Major, K.314, 2- Andante ma non troppo.wav
    Pre-gap length 0:00:02.89
    Peak level 64.9 % Track quality 100.0 % Test CRC 1B5431F5 Copy CRC 1B5431F5 Track not present in AccurateRip database Copy OK
    Track 6
    Filename W:\FLAC rips\Mozart - Bassoon Concerto, Oboe Concerto, Clarinet Concerto (Turnovsky, Gabriel, Ottensamer, Wildner) (1989)\06 - Concerto For Oboe And Orchestra In C Major, K.314,3- Allegro.wav
    Peak level 75.0 % Track quality 100.0 % Test CRC F42A87B4 Copy CRC F42A87B4 Track not present in AccurateRip database Copy OK
    Track 7
    Filename W:\FLAC rips\Mozart - Bassoon Concerto, Oboe Concerto, Clarinet Concerto (Turnovsky, Gabriel, Ottensamer, Wildner) (1989)\07 - Concerto For Clarinet And Orchestra In A Major, K.622, 1- Allegro.wav
    Pre-gap length 0:00:07.29
    Peak level 86.0 % Track quality 99.9 % Test CRC 0FF4A81F Copy CRC 0FF4A81F Track not present in AccurateRip database Copy OK
    Track 8
    Filename W:\FLAC rips\Mozart - Bassoon Concerto, Oboe Concerto, Clarinet Concerto (Turnovsky, Gabriel, Ottensamer, Wildner) (1989)\08 - Concerto For Clarinet And Orchestra In A Major, K.622, 2- Adagio.wav
    Pre-gap length 0:00:03.40
    Peak level 42.7 % Track quality 100.0 % Test CRC 9E17E772 Copy CRC 9E17E772 Track not present in AccurateRip database Copy OK
    Track 9
    Filename W:\FLAC rips\Mozart - Bassoon Concerto, Oboe Concerto, Clarinet Concerto (Turnovsky, Gabriel, Ottensamer, Wildner) (1989)\09 - Concerto For Clarinet And Orchestra In A Major, K.622, 3- Rondo- Allegro.wav
    Pre-gap length 0:00:02.00
    Peak level 83.3 % Track quality 100.0 % Test CRC B38427D0 Copy CRC B38427D0 Track not present in AccurateRip database Copy OK
    None of the tracks are present in the AccurateRip database
    No errors occurred
    End of status report

    auCDtect Task Manager log / Отчёт auCDtect Task Manager

    -----------------------
    DON'T MODIFY THIS FILE
    -----------------------
    PERFORMER: auCDtect Task Manager, ver. 1.5.1RC3 build 1.5.1.4Copyright (c) 2008-2010 y-soft. All rights reserved
    ANALYZER: auCDtect: CD records authenticity detector, version 0.8.2Copyright (c) 2004 Oleg Berngardt. All rights reserved.Copyright (c) 2004 Alexander Djourik. All rights reserved.
    FILE: 03 - Konzert fuer Fagott und Orchester - III. Rondo. Tempo di Menuetto.flac Size: 18108423 Hash: 589A55BB81570E01CC6E720CD08B0CB0 Accuracy: -m0 Conclusion: CDDA 100% Signature: AC8A503C84FF68D095151089C188C5AD1306B1ECFILE: 02 - Konzert fuer Fagott und Orchester - II. Andante ma adagio.flac Size: 22536033 Hash: 1AB4923F6614159D167C5DC2C2491A92 Accuracy: -m0 Conclusion: CDDA 100% Signature: 492C5E42E8C9CC9615FD1F2ADC3CFB3760F51995FILE: 01 - Konzert fuer Fagott und Orchester - I. Allegro.flac Size: 26919684 Hash: 1AF382A39C994C1D110E58D134618C6D Accuracy: -m0 Conclusion: CDDA 100% Signature: 50458290D5088E7E025F011EE2F29ACC6540AED7FILE: 09 - Konzert fuer Klarinette und Orchester - III. Rondo. Allegro.flac Size: 39570734 Hash: 020E1D219608483A78711B89182CA15C Accuracy: -m0 Conclusion: CDDA 100% Signature: 7507434B930C0D88F6034E35D725D60A76DB9999FILE: 08 - Konzert fuer Klarinette und Orchester - II. Adagio.flac Size: 26017700 Hash: 8CA8F455FDB3B9C4A99CF26F4BC472A4 Accuracy: -m0 Conclusion: CDDA 100% Signature: A1FF12230105F573457A96E29A8E9B4D1848D955FILE: 07 - Konzert fuer Klarinette und Orchester - I. Allegro.flac Size: 55417605 Hash: 6E20FAD95890AEF7642B7615198E0A87 Accuracy: -m0 Conclusion: CDDA 100% Signature: DA958EB2BBBD725FC8F816AC5259B9F1128C19F3FILE: 06 - Konzert fuer Oboe und Orchester - III. Rondo. Allegretto.flac Size: 27143839 Hash: 2BF0780AB5B092C5AAE5571A88166FDB Accuracy: -m0 Conclusion: CDDA 100% Signature: 1E419A9E626627FD20B62179A46EE4139151B970FILE: 05 - Konzert fuer Oboe und Orchester - II. Adagio non troppo.flac Size: 31662650 Hash: 46B680EBB8D0F4A86E6EA82B8249BFD1 Accuracy: -m0 Conclusion: CDDA 100% Signature: AE268D4E6ED43C4F45F9D4EEDA168FB0533A6E11FILE: 04 - Konzert fuer Oboe und Orchester - I. Allegro aperto.flac Size: 33290571 Hash: 52A71EFBA62CCEFAF2CDDD6E8D1687DE Accuracy: -m0 Conclusion: CDDA 99% Signature: 4E5E4278817ECA75F80A4EC554F39F2496BD15DD

    CUETools log / Отчёт CUETools

    [CUETools log; Date: 09.03.2014 22:30:38; Version: 2.1.4][AccurateRip ID: 0015703d-00a08ba5-880fff09] found.Track [ CRC | V2 ] Status 01 [b411ae98|0b454a62] (2+2/4) Accurately ripped 02 [dfaa6632|8fcbd9e5] (2+2/4) Accurately ripped 03 [e1c8a323|c5ac06e7] (2+2/4) Accurately ripped 04 [2a78eb22|42da141b] (2+2/4) Accurately ripped 05 [c4a2fc3a|c9862214] (2+2/4) Accurately ripped 06 [e190367b|094d22f5] (2+2/4) Accurately ripped 07 [f979e9c9|9812fc80] (2+2/4) Accurately ripped 08 [5792753d|73aeac1e] (2+0/2) Accurately ripped 09 [a6921719|e51d9f0d] (2+2/4) Accurately ripped
    Track Peak [ CRC32 ] [W/O NULL] [ LOG ] -- 97,7 [14137B88] [99D507DE] 01 89,1 [E5697D9E] [8A2518C9] CRC32 02 45,3 [3CC0EC25] [75DDDB4C] CRC32 03 97,7 [5B9A1B28] [D33EAFFA] CRC32 04 97,7 [8D3C3591] [3547D236] CRC32 05 64,9 [1B5431F5] [AFBD442A] CRC32 06 75,0 [F42A87B4] [9BD640D4] CRC32 07 86,0 [0FF4A81F] [8EC2690A] CRC32 08 42,7 [9E17E772] [F51D137A] CRC32 09 83,3 [B38427D0] [58F3D05E] CRC32

    CUE sheet

    TITLE "Wolfgang Amadeus Mozart: Fagottkonzert • Oboenkonzert • Klarinettenkonzert"PERFORMER "Various"REM GENRE ClassicalREM DISCID 880FFF09REM COMMENT "ExactAudioCopy v0.99pb5"FILE "01 - Konzert fuer Fagott und Orchester - I. Allegro.flac" WAVE TRACK 01 AUDIO TITLE "Konzert für Fagott und Orchester B-dur, KV 191 (186e): I. Allegro" PERFORMER "Stepan Turnovsky, Wiener Mozart-Akademie. Johannes Wildner, conductor" REM DATE 1989 INDEX 01 00:00:00 TRACK 02 AUDIO TITLE "Konzert für Fagott und Orchester B-dur, KV 191 (186e): II. Andante ma adagio" PERFORMER "Stepan Turnovsky, Wiener Mozart-Akademie. Johannes Wildner, conductor" REM DATE 1989 INDEX 00 06:38:73FILE "02 - Konzert fuer Fagott und Orchester - II. Andante ma adagio.flac" WAVE INDEX 01 00:00:00 TRACK 03 AUDIO TITLE "Konzert für Fagott und Orchester B-dur, KV 191 (186e): III. Rondo: Tempo di Menuetto" PERFORMER "Stepan Turnovsky, Wiener Mozart-Akademie. Johannes Wildner, conductor" REM DATE 1989 INDEX 00 06:34:05FILE "03 - Konzert fuer Fagott und Orchester - III. Rondo. Tempo di Menuetto.flac" WAVE INDEX 01 00:00:00 TRACK 04 AUDIO TITLE "Konzert für Oboe und Orchester C-dur, KV 314 (285d): I. Allegro aperto" PERFORMER "Martin Gabriel, Wiener Mozart-Akademie. Johannes Wildner, conductor" REM DATE 1989 INDEX 00 04:13:28FILE "04 - Konzert fuer Oboe und Orchester - I. Allegro aperto.flac" WAVE INDEX 01 00:00:00 TRACK 05 AUDIO TITLE "Konzert für Oboe und Orchester C-dur, KV 314 (285d): II. Adagio non troppo" PERFORMER "Martin Gabriel, Wiener Mozart-Akademie. Johannes Wildner, conductor" REM DATE 1989 INDEX 00 07:11:13FILE "05 - Konzert fuer Oboe und Orchester - II. Adagio non troppo.flac" WAVE INDEX 01 00:00:00FILE "06 - Konzert fuer Oboe und Orchester - III. Rondo. Allegretto.flac" WAVE TRACK 06 AUDIO TITLE "Konzert für Oboe und Orchester C-dur, KV 314 (285d): III. Rondo: Allegretto" PERFORMER "Martin Gabriel, Wiener Mozart-Akademie. Johannes Wildner, conductor" REM DATE 1989 INDEX 01 00:00:00 TRACK 07 AUDIO TITLE "Konzert für Klarinette und Orchester A-dur, KV 622: I. Allegro" PERFORMER "Ernst Ottensamer, Wiener Mozart-Akademie. Johannes Wildner, conductor" REM DATE 1989 INDEX 00 05:58:00FILE "07 - Konzert fuer Klarinette und Orchester - I. Allegro.flac" WAVE INDEX 01 00:00:00 TRACK 08 AUDIO TITLE "Konzert für Klarinette und Orchester A-dur, KV 622: II. Adagio" PERFORMER "Ernst Ottensamer, Wiener Mozart-Akademie. Johannes Wildner, conductor" REM DATE 1989 INDEX 00 12:58:43FILE "08 - Konzert fuer Klarinette und Orchester - II. Adagio.flac" WAVE INDEX 01 00:00:00 TRACK 09 AUDIO TITLE "Konzert für Klarinette und Orchester A-dur, KV 622: III. Rondo: Allegro" PERFORMER "Ernst Ottensamer, Wiener Mozart-Akademie. Johannes Wildner, conductor" REM DATE 1989 INDEX 00 07:17:02FILE "09 - Konzert fuer Klarinette und Orchester - III. Rondo. Allegro.flac" WAVE INDEX 01 00:00:00
    [teatrix.ru].t9975.torrent 
    Торрент: Зарегистрирован [ 2015-10-25 20:37 ] · 9491A9AB549913FA89E8BD6AFC531B220504DDEA

    Скачать .torrent

    Скачать

    13 KB

    Статус: проверено
    Скачан: 0 раз
    Размер: 269 MB
    terms.php



  • Быстрый ответ

    Имя:

          
    Для отправки сообщений необходимо включить JavaScript
    Показать сообщения:    

    Текущее время: 03-Дек 09:42

    Часовой пояс: UTC + 3


    Вы можете начинать темы
    Вы можете отвечать на сообщения
    Вы не можете редактировать свои сообщения
    Вы не можете удалять свои сообщения
    Вы не можете голосовать в опросах
    Вы не можете прикреплять файлы к сообщениям
    Вы можете скачивать файлы