(Classical) Johann Gottlieb Graun - Konzertante musik mit viola da gamba (Christophe Coin, Ensemble Baroque de Limoges) - 2011, FLAC (image+.cue) lossless


Статистика раздачи [Обновить пиров]
Размер:  419 MB   |    Зарегистрирован:  1 год 1 месяц   |    Скачан:  0 раз
Сидов:  1  [  0 KB/s  ]   Подробная статистика пиров
 
   
 
 
 

[Цитировать]

Johann Gottlieb Graun - Konzertante musik mit viola da gamba (Christophe Coin)
Жанр: Classical
Год издания диска: 2011
Издатель (лейбл): Naïve
Номер по каталогу: E 8617
Аудиокодек: FLAC
Тип рипа: image+.cue
Битрейт аудио: lossless
Продолжительность: 73’42
Источник: собственный рип
Наличие сканов в содержимом раздачи: да
Треклист:
01-03. Concerto a violono e viola da gamba (ut mineur)
04-06. Trio a due viola da gamba e basso (sol majeur)
07-09. Concerto per la viola da gamba (la mineur)
10-12. Sonate a tre, violono ovvero viola da gamba, violono quinto accordio e basso cembalo (la majeur)
Исполнители:
Christophe Coin, viole de gambe
Vittorio Ghielmi, viole de gambe
Gilles Colliard, violon
Ensemble Baroque de Limoges

LOG EAC

Exact Audio Copy V1.0 beta 3 from 29. August 2011
EAC extraction logfile from 26. February 2014, 11:57
Ensemble Baroque de Limoges - Christophe Coin / Johann Gottlieb Graun - Konzertante Musik mit Viola da Gamba
Used drive : PIONEER DVD-RW DVR-218L Adapter: 0 ID: 1
Read mode : SecureUtilize accurate stream : YesDefeat audio cache : YesMake use of C2 pointers : No
Read offset correction : 6Overread into Lead-In and Lead-Out : NoFill up missing offset samples with silence : YesDelete leading and trailing silent blocks : NoNull samples used in CRC calculations : YesUsed interface : Native Win32 interface for Win NT & 2000
Used output format : User Defined EncoderSelected bitrate : 128 kBit/sQuality : HighAdd ID3 tag : NoCommand line compressor : C:\Program Files\Exact Audio Copy\Flac\flac.exeAdditional command line options : -V -8 -T "Date=%year%" -T "Genre=%genre%" %source%
TOC of the extracted CD
Track | Start | Length | Start sector | End sector --------------------------------------------------------- 1 | 0:00.32 | 8:52.33 | 32 | 39964 2 | 8:52.65 | 7:14.42 | 39965 | 72556 3 | 16:07.32 | 7:53.60 | 72557 | 108091 4 | 24:01.17 | 4:23.33 | 108092 | 127849 5 | 28:24.50 | 3:23.47 | 127850 | 143121 6 | 31:48.22 | 3:46.35 | 143122 | 160106 7 | 35:34.57 | 10:15.63 | 160107 | 206294 8 | 45:50.45 | 7:12.57 | 206295 | 238751 9 | 53:03.27 | 5:42.43 | 238752 | 264444 10 | 58:45.70 | 5:10.00 | 264445 | 287694 11 | 63:55.70 | 4:38.62 | 287695 | 308606 12 | 68:34.57 | 5:07.00 | 308607 | 331631
Range status and errors
Selected range
Filename C:\HM\Johann Gottlieb Graun - Konzertante Musik mit Viola da Gamba.wav
Peak level 99.3 % Extraction speed 2.0 X Range quality 100.0 % Test CRC CF44D467 Copy CRC CF44D467 Copy OK
No errors occurred
End of status report
==== Log checksum D0B279FDC0B459D85ADBD8843AE7E2A2861B9CDA2A5DB18B5587D949AD1760AE ====
mp3
[teatrix.ru].t9976.torrent 
Торрент: Зарегистрирован [ 2015-10-25 20:37 ] · 94A86312347B0B22F1A3177C18925F9E9A2C5A52

Скачать .torrent

Скачать

17 KB

Статус: проверено
Скачан: 0 раз
Размер: 419 MB
terms.php



Быстрый ответ

Имя:

      
Для отправки сообщений необходимо включить JavaScript
Показать сообщения:    

Текущее время: 08-Дек 19:06

Часовой пояс: UTC + 3


Вы можете начинать темы
Вы можете отвечать на сообщения
Вы не можете редактировать свои сообщения
Вы не можете удалять свои сообщения
Вы не можете голосовать в опросах
Вы не можете прикреплять файлы к сообщениям
Вы можете скачивать файлы