(Classical) Рахманинов, Gershwin - Piano Concerto No. 2, Rhapsody in Blue (Мацуев; New York Philharmonic, Alan Gilbert) - 2013, FLAC (image+.cue) lossless


Статистика раздачи [Обновить пиров]
Размер:  182 MB   |    Зарегистрирован:  1 год 1 месяц   |    Скачан:  1 раз

Полного источника не было: 3 месяца 9 дней

 
   
 
 
 

[Цитировать]

Рахманинов, Gershwin - Piano Concerto No. 2, Rhapsody in Blue
(Мацуев; New York Philharmonic, Alan Gilbert)
Жанр: Classical
Страна-производитель диска: Россия
Год издания диска: 2013
Издатель (лейбл): RCA
Номер по каталогу: 88765415542
Дата записи: 6-7.10.2012
Аудиокодек: FLAC
Тип рипа: image+.cue
Источник: JVA
Битрейт аудио: lossless
Продолжительность: 0:49:01
Наличие сканов в содержимом раздачи: да
Треклист:
Сергей Рахманинов (1873-1943)
Piano Concerto No. 2 in С minor, Op. 18
01. I. Moderato - Allegro (10:29)
02. II. Adagio sostenuto (10:00)
03. III. Allegro scherzando (11:11)
George Gershwin (1898-1937)
04. Rhapsody in Blue (17:09)
Исполнители:
Denis Matsuev - piano
New York Philharmonic
Alan Gilbert

Лог создания рипа

Exact Audio Copy V0.99 prebeta 5 from 4. May 2009
Отчёт EAC об извлечении, выполненном 28. мая 2013, 21:45
Denis Matsuev / Denis Matsuev & The New York Philharmonic
Дисковод: ASUS SBC-06D1S-U Adapter: 2 ID: 0
Режим чтения : ДостоверностьИспользование точного потока : ДаОтключение кэша аудио : ДаИспользование указателей C2 : Нет
Коррекция смещения при чтении : 102Способность читать области Lead-in и Lead-out : НетЗаполнение пропущенных сэмплов тишиной : ДаУдаление блоков с тишиной в начале и конце : НетПри вычислениях CRC использовались нулевые сэмплы : ДаИнтерфейс : Встроенный Win32-интерфейс для Win NT/2000
Выходной формат : Пользовательский кодировщикВыбранный битрейт : 768 kBit/sКачество : ВысокийДобавление ID3-тэга : НетУтилита сжатия : C:\Program Files (x86)\Exact Audio Copy\Flac\flac.exeДополнительные параметры : -6 -V -T "ARTIST=%a" -T "TITLE=%t" -T "ALBUM=%g" -T "DATE=%y" -T "TRACKNUMBER=%n" -T "GENRE=%m" -T "COMMENT=%e" %s -o %d
TOC извлечённого CD
Трек | Старт | Длительность | Начальный сектор | Конечный сектор --------------------------------------------------------------------- 1 | 0:00.00 | 10:29.04 | 0 | 47178 2 | 10:29.04 | 10:03.72 | 47179 | 92475 3 | 20:33.01 | 11:19.27 | 92476 | 143427 4 | 31:52.28 | 17:09.41 | 143428 | 220643
Характеристики диапазона извлечения и сообщения об ошибках
Выбранный диапазон
Имя файла F:\EAC_AdvantiX\Denis Matsuev & The New York Philharmonic\D.Matsuev & The New York Philharmonic.wav
Пиковый уровень 96.6 % Качество диапазона 100.0 % CRC копии 36133AAE Копирование... OK
Ошибок не произошло
AccurateRip: сводка
Трек 1 точное извлечение (доверие 1) [512F35AB]Трек 2 точное извлечение (доверие 1) [A8E4D7BB]Трек 3 точное извлечение (доверие 1) [90F4B9A3]Трек 4 точное извлечение (доверие 1) [3382D404]
Все треки извлечены точно
Конец отчёта

Лог проверки качества

Скриншот спектра частот

[teatrix.ru].t9977.torrent 
Торрент: Зарегистрирован [ 2015-10-25 20:37 ] · 61261C75289C55283CBC1712D852ECDE27DE9734

Скачать .torrent

Скачать

15 KB

Статус: проверено
Скачан: 1 раз
Размер: 182 MB
terms.php



Быстрый ответ

Имя:

      
Для отправки сообщений необходимо включить JavaScript
Показать сообщения:    

Текущее время: 10-Дек 17:48

Часовой пояс: UTC + 3


Вы можете начинать темы
Вы можете отвечать на сообщения
Вы не можете редактировать свои сообщения
Вы не можете удалять свои сообщения
Вы не можете голосовать в опросах
Вы не можете прикреплять файлы к сообщениям
Вы можете скачивать файлы