(Orchestral, Piano Concerto) Salonen: Helix, Piano Concerto, Dichotomie / Ефим Бронфман (Yefim Bronfman), Los Angeles Philharmonic - 2008, FLAC (tracks+.cue) lossless


Статистика раздачи [Обновить пиров]
Размер:  268 MB   |    Зарегистрирован:  1 год 1 месяц   |    Скачан:  0 раз

Полного источника не было: Никогда

 
   
 
 
 

[Цитировать]

Salonen: Helix, Piano Concerto, Dichotomie / Ефим Бронфман (Yefim Bronfman)
Жанр: Orchestral, Piano Concerto
Год издания диска: 2008
Издатель (лейбл): Deutsche Grammophon
Номер по каталогу: DGG4778103
Дата записи: 2000-2007
Аудиокодек: FLAC
Тип рипа: tracks+.cue
Битрейт аудио: lossless
Продолжительность: 01:34:30
Источник: sevuolballare (what.cd)
Наличие сканов в содержимом раздачи: нет
Треклист:
1. Helix 9:34
Piano Concerto
2. Movement I 14:53
3. Movement II 9:37
4. Movement III 8:46
Dichotomie
5. 1. Mécanisme 9:46
6. 2. Organisme 7:50
Исполнители:
Yefim Bronfman - piano
Los Angeles Philharmonic
Esa-Pekka Salonen - composer, conductor

Лог создания рипа

X Lossless Decoder version 20090320 (105.1)
XLD extraction logfile from 2009-04-11 17:39:06 -0400
Various Artists / Salonen: Helix, Piano Concerto, Dichotomie
Used drive : MATSHITA DVD-R UJ-868 (revision KA14)
Use cdparanoia mode : YES (CDParanoia III 10.2 engine)Disable audio cache : OK for the drive with cache less than 2750KBMake use of C2 pointers : NORead offset correction : 102Max retry count : 100
TOC of the extracted CD Track | Start | Length | Start sector | End sector --------------------------------------------------------- 1 | 00:00:00 | 09:36:14 | 0 | 43213 2 | 09:36:14 | 14:52:73 | 43214 | 110186 3 | 24:29:12 | 09:36:66 | 110187 | 153452 4 | 34:06:03 | 08:50:60 | 153453 | 193262 5 | 42:56:63 | 09:45:59 | 193263 | 237196 6 | 52:42:47 | 07:49:58 | 237197 | 272429
Track 01 Filename : /Users/desenas/Desktop/Media/What.CD uploads/Esa-Pekka Salonen - Helix, Piano Concerto, Dichotomie/01 - Helix for Orchestra.m4a /Users/desenas/Desktop/Media/What.CD uploads/Esa-Pekka Salonen - Helix, Piano Concerto, Dichotomie/01 - Helix for Orchestra.flac /Users/desenas/Desktop/Media/What.CD uploads/Esa-Pekka Salonen - Helix, Piano Concerto, Dichotomie/01 - Helix for Orchestra.mp3 CRC32 hash (test run) : 33C7D526 CRC32 hash : 33C7D526 CRC32 hash (skip zero) : F40C0F3C AccurateRip signature : B634C8BE ->Track not present in AccurateRip database. Statistics Read error : 0 Skipped (treated as error) : 0 Edge jitter error (maybe fixed) : 0 Atom jitter error (maybe fixed) : 0 Drift error (maybe fixed) : 0 Dropped bytes error (maybe fixed) : 0 Duplicated bytes error (maybe fixed) : 0 Inconsistency in error sectors : 0
Track 02 Filename : /Users/desenas/Desktop/Media/What.CD uploads/Esa-Pekka Salonen - Helix, Piano Concerto, Dichotomie/02 - Piano Concerto - Movement I.m4a /Users/desenas/Desktop/Media/What.CD uploads/Esa-Pekka Salonen - Helix, Piano Concerto, Dichotomie/02 - Piano Concerto - Movement I.flac /Users/desenas/Desktop/Media/What.CD uploads/Esa-Pekka Salonen - Helix, Piano Concerto, Dichotomie/02 - Piano Concerto - Movement I.mp3 CRC32 hash (test run) : 3F3A8BA8 CRC32 hash : 3F3A8BA8 CRC32 hash (skip zero) : BD0CB1D5 AccurateRip signature : 61EE7F7B ->Track not present in AccurateRip database. Statistics Read error : 0 Skipped (treated as error) : 0 Edge jitter error (maybe fixed) : 0 Atom jitter error (maybe fixed) : 0 Drift error (maybe fixed) : 0 Dropped bytes error (maybe fixed) : 0 Duplicated bytes error (maybe fixed) : 0 Inconsistency in error sectors : 0
Track 03 Filename : /Users/desenas/Desktop/Media/What.CD uploads/Esa-Pekka Salonen - Helix, Piano Concerto, Dichotomie/03 - Piano Concerto - Movement II.m4a /Users/desenas/Desktop/Media/What.CD uploads/Esa-Pekka Salonen - Helix, Piano Concerto, Dichotomie/03 - Piano Concerto - Movement II.flac /Users/desenas/Desktop/Media/What.CD uploads/Esa-Pekka Salonen - Helix, Piano Concerto, Dichotomie/03 - Piano Concerto - Movement II.mp3 CRC32 hash (test run) : EA6A426A CRC32 hash : EA6A426A CRC32 hash (skip zero) : F4D23448 AccurateRip signature : D5D47A4E ->Track not present in AccurateRip database. Statistics Read error : 0 Skipped (treated as error) : 0 Edge jitter error (maybe fixed) : 0 Atom jitter error (maybe fixed) : 0 Drift error (maybe fixed) : 0 Dropped bytes error (maybe fixed) : 0 Duplicated bytes error (maybe fixed) : 0 Inconsistency in error sectors : 0
Track 04 Filename : /Users/desenas/Desktop/Media/What.CD uploads/Esa-Pekka Salonen - Helix, Piano Concerto, Dichotomie/04 - Piano Concerto - Movement III.m4a /Users/desenas/Desktop/Media/What.CD uploads/Esa-Pekka Salonen - Helix, Piano Concerto, Dichotomie/04 - Piano Concerto - Movement III.flac /Users/desenas/Desktop/Media/What.CD uploads/Esa-Pekka Salonen - Helix, Piano Concerto, Dichotomie/04 - Piano Concerto - Movement III.mp3 CRC32 hash (test run) : 387D6247 CRC32 hash : 387D6247 CRC32 hash (skip zero) : D059BCD5 AccurateRip signature : 1BF7F5CA ->Track not present in AccurateRip database. Statistics Read error : 0 Skipped (treated as error) : 0 Edge jitter error (maybe fixed) : 0 Atom jitter error (maybe fixed) : 0 Drift error (maybe fixed) : 0 Dropped bytes error (maybe fixed) : 0 Duplicated bytes error (maybe fixed) : 0 Inconsistency in error sectors : 0
Track 05 Filename : /Users/desenas/Desktop/Media/What.CD uploads/Esa-Pekka Salonen - Helix, Piano Concerto, Dichotomie/05 - Dichotomie for Piano Solo - I. Mécanisme.m4a /Users/desenas/Desktop/Media/What.CD uploads/Esa-Pekka Salonen - Helix, Piano Concerto, Dichotomie/05 - Dichotomie for Piano Solo - I. Mécanisme.flac /Users/desenas/Desktop/Media/What.CD uploads/Esa-Pekka Salonen - Helix, Piano Concerto, Dichotomie/05 - Dichotomie for Piano Solo - I. Mécanisme.mp3 CRC32 hash (test run) : EEF3CF95 CRC32 hash : EEF3CF95 CRC32 hash (skip zero) : 27638ED5 AccurateRip signature : CC6EDF45 ->Track not present in AccurateRip database. Statistics Read error : 0 Skipped (treated as error) : 0 Edge jitter error (maybe fixed) : 0 Atom jitter error (maybe fixed) : 0 Drift error (maybe fixed) : 0 Dropped bytes error (maybe fixed) : 0 Duplicated bytes error (maybe fixed) : 0 Inconsistency in error sectors : 0
Track 06 Filename : /Users/desenas/Desktop/Media/What.CD uploads/Esa-Pekka Salonen - Helix, Piano Concerto, Dichotomie/06 - Dichotomie for Piano Solo - II. Organisme.m4a /Users/desenas/Desktop/Media/What.CD uploads/Esa-Pekka Salonen - Helix, Piano Concerto, Dichotomie/06 - Dichotomie for Piano Solo - II. Organisme.flac /Users/desenas/Desktop/Media/What.CD uploads/Esa-Pekka Salonen - Helix, Piano Concerto, Dichotomie/06 - Dichotomie for Piano Solo - II. Organisme.mp3 CRC32 hash (test run) : EA37F762 CRC32 hash : EA37F762 CRC32 hash (skip zero) : 625F4E92 AccurateRip signature : A10E6B3D ->Track not present in AccurateRip database. Statistics Read error : 0 Skipped (treated as error) : 0 Edge jitter error (maybe fixed) : 0 Atom jitter error (maybe fixed) : 0 Drift error (maybe fixed) : 0 Dropped bytes error (maybe fixed) : 0 Duplicated bytes error (maybe fixed) : 0 Inconsistency in error sectors : 0
No errors occurred
End of status report

Содержание индексной карты (.CUE)

TITLE "Salonen: Helix, Piano Concerto, Dichotomie"CATALOG 0028947781035REM GENRE "Classical"REM DATE 2009FILE "01 - Helix for Orchestra.wav" WAVE TRACK 01 AUDIO TITLE "Helix for Orchestra" PERFORMER "Los Angeles Philharmonic, Esa-Pekka Salonen" ISRC DEN960700320 INDEX 01 00:00:00 TRACK 02 AUDIO TITLE "Piano Concerto - Movement I" PERFORMER "Yefim Bronfman; Los Angeles Philharmonic, Esa-Pekka Salonen" ISRC DEN960802001 INDEX 00 09:34:36FILE "02 - Piano Concerto - Movement I.wav" WAVE INDEX 01 00:00:00FILE "03 - Piano Concerto - Movement II.wav" WAVE TRACK 03 AUDIO TITLE "Piano Concerto - Movement II" PERFORMER "Yefim Bronfman; Los Angeles Philharmonic, Esa-Pekka Salonen" ISRC DEN960802002 INDEX 01 00:00:00FILE "04 - Piano Concerto - Movement III.wav" WAVE TRACK 04 AUDIO TITLE "Piano Concerto - Movement III" PERFORMER "Yefim Bronfman; Los Angeles Philharmonic, Esa-Pekka Salonen" ISRC DEN960802003 INDEX 01 00:00:00 TRACK 05 AUDIO TITLE "Dichotomie for Piano Solo - I. Mécanisme" PERFORMER "Yefim Bronfman" ISRC DEN960401081 INDEX 00 08:46:30FILE "05 - Dichotomie for Piano Solo - I. Mécanisme.wav" WAVE INDEX 01 00:00:00FILE "06 - Dichotomie for Piano Solo - II. Organisme.wav" WAVE TRACK 06 AUDIO TITLE "Dichotomie for Piano Solo - II. Organisme" PERFORMER "Yefim Bronfman" ISRC DEN960401082 INDEX 01 00:00:00
[teatrix.ru].t9978.torrent 
Торрент: Зарегистрирован [ 2015-10-25 20:37 ] · 0BA406204FB213C597387ED03E34525DB285166D

Скачать .torrent

Скачать

12 KB

Статус: проверено
Скачан: 0 раз
Размер: 268 MB
terms.php



Быстрый ответ

Имя:

      
Для отправки сообщений необходимо включить JavaScript
Показать сообщения:    

Текущее время: 08-Дек 05:18

Часовой пояс: UTC + 3


Вы можете начинать темы
Вы можете отвечать на сообщения
Вы не можете редактировать свои сообщения
Вы не можете удалять свои сообщения
Вы не можете голосовать в опросах
Вы не можете прикреплять файлы к сообщениям
Вы можете скачивать файлы