(Cello concerto) Мясковский - Виолончельный концерт | Чайковский - Вариации на тему рококо • Ноктюрн | Шостакович - »Светлый ручей« [Adagio] (Julian Lloyd Webber • Максим Шостакович) - 1992, FLAC (image+.cue) lossless


Статистика раздачи [Обновить пиров]
Размер:  211 MB   |    Зарегистрирован:  1 год 1 месяц   |    Скачан:  1 раз

Полного источника не было: 1 месяц 23 дня

 
   
 
 
 

[Цитировать]

TCHAIKOVSKY | MIASKOVSKY | SHOSTAKOVICH
Julian Lloyd Webber
London Symphony Orchestra
Maxim Shostakovich
-
-
- Жанр: Cello concerto
Страна-производитель диска: Germany
Год издания диска: 1992
Издатель (лейбл): Philips
Дата записи: 9.1991
Аудиокодек: FLAC
Тип рипа: image+.cue
Битрейт аудио: lossless
Продолжительность: 63'55''
Источник: собственный рип
Наличие сканов в содержимом раздачи: да
Треклист:
Николай Мясковский - Виолончельный концерт:
[1] I. Lento, ma non troppo
[2] II. Allegro vivace - Lento comeprimo
Дмитрий Шостакович - »Светлый ручей«:
[3] Adagio
Петр Чайковский:
[4] Вариации на тему рококо
[5] Ноктюрн ре минор
Исполнители:
Julian Lloyd Webber - violoncello
London Symphony Orchestra - Максим Шостакович
-

Лог создания рипа

Exact Audio Copy V1.0 beta 3 from 29. August 2011
EAC extraction logfile from 19. January 2014, 20:47
J.Lloyd Webber; London Symphony Orchestra - M.Shostakovich / Julian Lloyd Webber performs Miaskovsky, Shostakovich, Tchaikovsky
Used drive : COMPAQ CD-ROM LTN403 Adapter: 0 ID: 0
Read mode : SecureUtilize accurate stream : YesDefeat audio cache : YesMake use of C2 pointers : No
Read offset correction : -1164Overread into Lead-In and Lead-Out : YesFill up missing offset samples with silence : YesDelete leading and trailing silent blocks : NoNull samples used in CRC calculations : YesUsed interface : Native Win32 interface for Win NT & 2000
Used output format : User Defined EncoderSelected bitrate : 896 kBit/sQuality : HighAdd ID3 tag : NoCommand line compressor : C:\Program Files\FLAC\flac.exeAdditional command line options : -T "COMMENT=rip by el coronel" -8 -V %source%
TOC of the extracted CD
Track | Start | Length | Start sector | End sector --------------------------------------------------------- 1 | 0:00.33 | 12:53.12 | 33 | 58019 2 | 12:53.45 | 19:11.63 | 58020 | 144407 3 | 32:05.33 | 7:05.00 | 144408 | 176282 4 | 39:10.33 | 19:46.00 | 176283 | 265232 5 | 58:56.33 | 4:59.00 | 265233 | 287657
Range status and errors
Selected range
Filename D:\J.Lloyd Webber - Miaskovsky, Shostakovich, Tchaikovsky\Julian Lloyd Webber performs Miaskovsky, Shostakovich, Tchaikovsky.wav
Peak level 95.9 % Extraction speed 3.0 X Range quality 99.9 % Test CRC 514504B5 Copy CRC 514504B5 Copy OK
No errors occurred
AccurateRip summary
Track 1 not present in databaseTrack 2 not present in databaseTrack 3 not present in databaseTrack 4 not present in databaseTrack 5 not present in database
None of the tracks are present in the AccurateRip database
End of status report
==== Log checksum 655B3D454D3C2C072C8698470C274C46233435DFB776F256E24A3AB604184BA9 ====

Содержание индексной карты (.CUE)

REM GENRE ClassicalREM DATE 1992REM DISCID 470EFB05REM COMMENT "ExactAudioCopy v1.0b3"PERFORMER "J.Lloyd Webber; London Symphony Orchestra - M.Shostakovich"TITLE "Julian Lloyd Webber performs Miaskovsky, Shostakovich, Tchaikovsky"FILE "Julian Lloyd Webber performs Miaskovsky, Shostakovich, Tchaikovsky.flac" WAVE TRACK 01 AUDIO TITLE "Miaskovsky - Cello Concerto, Op 66: I. Lento, ma non troppo" PERFORMER "J.Lloyd Webber; London Symphony Orchestra - M.Shostakovich" INDEX 00 00:00:00 INDEX 01 00:00:33 TRACK 02 AUDIO TITLE "II. Allegro vivace - Lento comeprimo" PERFORMER "J.Lloyd Webber; London Symphony Orchestra - M.Shostakovich" INDEX 01 12:53:45 TRACK 03 AUDIO TITLE "Shostakovich - The Limpid Stream: Adagio" PERFORMER "J.Lloyd Webber; London Symphony Orchestra - M.Shostakovich" INDEX 00 32:02:33 INDEX 01 32:05:33 TRACK 04 AUDIO TITLE "Tchaikovsky - Variations on a Rococo Theme, Op 33" PERFORMER "J.Lloyd Webber; London Symphony Orchestra - M.Shostakovich" INDEX 00 39:02:33 INDEX 01 39:10:33 TRACK 05 AUDIO TITLE "Nocturne in D minor" PERFORMER "J.Lloyd Webber; London Symphony Orchestra - M.Shostakovich" INDEX 00 58:53:33 INDEX 01 58:56:33
[teatrix.ru].t9979.torrent 
Торрент: Зарегистрирован [ 2015-10-25 20:37 ] · B6646DB011487BD95A057885CB0D78F06C981A69

Скачать .torrent

Скачать

17 KB

Статус: проверено
Скачан: 1 раз
Размер: 211 MB
terms.php



Быстрый ответ

Имя:

      
Для отправки сообщений необходимо включить JavaScript
Показать сообщения:    

Текущее время: 10-Дек 17:48

Часовой пояс: UTC + 3


Вы можете начинать темы
Вы можете отвечать на сообщения
Вы не можете редактировать свои сообщения
Вы не можете удалять свои сообщения
Вы не можете голосовать в опросах
Вы не можете прикреплять файлы к сообщениям
Вы можете скачивать файлы