(Classical) Chameleon - Music for Tuba and Fanfare Band: Baadsvik, Jager, Goorhuis, Hamers, Newsome - Oystein Baadsvik, FKKLBW, Tijmen Botma - 2012, FLAC (image+.cue) lossless


Статистика раздачи [Обновить пиров]
Размер:  223 MB   |    Зарегистрирован:  1 год 1 месяц   |    Скачан:  0 раз

Полного источника не было: Никогда

Личеров:  1  [  0 KB/s  ]   Подробная статистика пиров
 
   
 
 
 

[Цитировать]

Chameleon - Music for Tuba and Fanfare Band: Baadsvik, Jager, Goorhuis, Hamers, Newsome - Øystein Baadsvik, FKKLBW, Tijmen Botma
Жанр: Classical
Страна-производитель диска: Sweden
Год издания диска: 2012
Издатель (лейбл): BIS
Номер по каталогу: BIS-SACD-1965
Дата записи: 2010
Аудиокодек: FLAC
Тип рипа: image+.cue
Битрейт аудио: lossless
Продолжительность: 64:47
Источник: собственный рип
Наличие сканов в содержимом раздачи: да
Треклист:
Øystein Baadsvik (b. 1966)
[1] Did You Do?
Anna Baadsvik (b. 1966)
[2] Memory of a Rose
Robert Jager (b. 1939)
[3] Concerto for Bass Tuba and Concert Band
Rob Goorhuis (b. 1948)
[4] Concerto for Tuba and Fanfare Band
Pat Metheny (b. 1954) & Lyle Mays (b. 1953), arr. Ray Farr
[5] Minuano (Six Eight)
Maurice Hamers (b. 1962)
[6] Chameleon
Roy Newsome (1930–2011)
[7] Bass in the Ballroom for tuba and brass band
Исполнители:
Øystein Baadsvik tuba (and didgeridoo [track 1] )
Fanfarekorps Koninklijke Landmacht ‘Bereden Wapens’
(Fanfare Band of the Royal Netherlands Army ‘Mounted Regiments’)
Tijmen Botma conductor

Лог создания рипа

Exact Audio Copy V1.0 beta 3 from 29. August 2011
EAC extraction logfile from 16. December 2013, 12:42
Oystein Baadsvik, Fanfare Band of the Royal Netherlands Army, Tijmen Botma / Chameleon
Used drive : HL-DT-STDVDRRW GWA-4164B Adapter: 5 ID: 0
Read mode : SecureUtilize accurate stream : YesDefeat audio cache : YesMake use of C2 pointers : No
Read offset correction : 102Overread into Lead-In and Lead-Out : NoFill up missing offset samples with silence : YesDelete leading and trailing silent blocks : NoNull samples used in CRC calculations : YesUsed interface : Native Win32 interface for Win NT & 2000
Used output format : User Defined EncoderSelected bitrate : 896 kBit/sQuality : HighAdd ID3 tag : NoCommand line compressor : C:\Program Files\Exact Audio Copy\FLAC\FLAC.EXEAdditional command line options : -V -8 %source%
TOC of the extracted CD
Track | Start | Length | Start sector | End sector --------------------------------------------------------- 1 | 0:00.00 | 3:58.14 | 0 | 17863 2 | 3:58.14 | 13:25.68 | 17864 | 78306 3 | 17:24.07 | 13:23.02 | 78307 | 138533 4 | 30:47.09 | 15:19.63 | 138534 | 207521 5 | 46:06.72 | 5:04.48 | 207522 | 230369 6 | 51:11.45 | 8:43.03 | 230370 | 269597 7 | 59:54.48 | 4:52.59 | 269598 | 291556
Range status and errors
Selected range
Filename D:\temp\Music\BIS-SACD-1965 - Chameleon - Music for Tuba and Fanfare Band\Chameleon.wav
Peak level 100.0 % Extraction speed 3.0 X Range quality 99.9 % Test CRC 401D4CD8 Copy CRC 401D4CD8 Copy OK
No errors occurred
AccurateRip summary
Track 1 not present in databaseTrack 2 not present in databaseTrack 3 not present in databaseTrack 4 not present in databaseTrack 5 not present in databaseTrack 6 not present in databaseTrack 7 not present in database
None of the tracks are present in the AccurateRip database
End of status report
==== Log checksum EFE2B939272744547EC024A3817A3FC33645A9B18E8A909A77372298AC494CF2 ====
[teatrix.ru].t9980.torrent 
Торрент: Зарегистрирован [ 2015-10-25 20:37 ] · ECA251FCCE19B41F859B306CE4E7D7ED4DEC85EB

Скачать .torrent

Скачать

36 KB

Статус: проверено
Скачан: 0 раз
Размер: 223 MB
terms.php



Быстрый ответ

Имя:

      
Для отправки сообщений необходимо включить JavaScript
Показать сообщения:    

Текущее время: 06-Дек 13:11

Часовой пояс: UTC + 3


Вы можете начинать темы
Вы можете отвечать на сообщения
Вы не можете редактировать свои сообщения
Вы не можете удалять свои сообщения
Вы не можете голосовать в опросах
Вы не можете прикреплять файлы к сообщениям
Вы можете скачивать файлы