(Classical) Прокофьев - Концертная симфония для виолончели с оркестром Op. 125, Ромео и Джульетта первая сюита Op. 64 (YuJeong Lee, Florian Krumpock, Norddeutsche Philharmonie Rostock) - 2012, FLAC (image+.cue) lossless


Статистика раздачи [Обновить пиров]
Размер:  309 MB   |    Зарегистрирован:  1 год 1 месяц   |    Скачан:  1 раз

Полного источника не было: 8 месяцев 5 дней

Личеров:  1  [  0 KB/s  ]   Подробная статистика пиров
 
   
 
 
 

[Цитировать]

Сергей Прокофьев
Концертная симфония для виолончели с оркестром Op. 125
Ромео и Джульетта первая сюита Op. 64

Жанр: Classical
Страна-производитель диска: Austria
Год издания диска: 2012
Издатель (лейбл): Solo Musica GmbH
Номер по каталогу: SM 171
Дата записи: 2011
Аудиокодек: FLAC
Тип рипа: image+.cue
Битрейт аудио: lossless
Продолжительность: 70'11
Источник: собственный рип
Наличие сканов в содержимом раздачи: да
Треклист:
Концертная симфония для виолончели с оркестром Op. 125
1. Andante 11'14
2. Allegro giusto 18'49
3. Andante con moto 10'49
Ромео и Джульетта первая сюита Op. 64
4. Folk dance 4'30
5. Tableau 1'47
6. Madrigal 4'02
7. Minuet 3'22
8. Masken 2'13
9. Romeo and Juliet 8'17
10. Death of Tybald 5'08
Исполнители:
YuJeong Lee cello 1-3
Florian Krumpöck conductor 1-10
Norddeutsche Philharmonie Rostock 1-10

Лог создания рипа

Exact Audio Copy V1.0 beta 1 from 15. November 2010
EAC extraction logfile from 29. January 2014, 19:41
YuJeong Lee, Florian Krumpock, Norddeutsche Philharmonie Rostok / Sergej Prokofiev: Sinfonia Concertante Op. 125, Romeo & Julia - First Suite Op. 64
Used drive : HL-DT-STDVDRAM GP08NU6B Adapter: 1 ID: 0
Read mode : SecureUtilize accurate stream : YesDefeat audio cache : YesMake use of C2 pointers : No
Read offset correction : 103Overread into Lead-In and Lead-Out : NoFill up missing offset samples with silence : YesDelete leading and trailing silent blocks : NoNull samples used in CRC calculations : YesUsed interface : Native Win32 interface for Win NT & 2000
Used output format : Пользовательский кодировщикSelected bitrate : 768 kBit/sQuality : HighAdd ID3 tag : NoCommand line compressor : C:\Program Files\Exact Audio Copy\FLAC\FLAC.EXEAdditional command line options : -8 -V -T "ARTIST=%a" -T "TITLE=%t" -T "ALBUM=%g" -T "DATE=%y" -T "TRACKNUMBER=%n" -T "GENRE=%m" -T "COMMENT=%e" %j--picture="%i"%j %s -o %d
TOC of the extracted CD
Track | Start | Length | Start sector | End sector --------------------------------------------------------- 1 | 0:00.00 | 11:14.00 | 0 | 50549 2 | 11:14.00 | 18:49.00 | 50550 | 135224 3 | 30:03.00 | 10:49.00 | 135225 | 183899 4 | 40:52.00 | 4:30.00 | 183900 | 204149 5 | 45:22.00 | 1:47.00 | 204150 | 212174 6 | 47:09.00 | 4:02.00 | 212175 | 230324 7 | 51:11.00 | 3:22.00 | 230325 | 245474 8 | 54:33.00 | 2:13.00 | 245475 | 255449 9 | 56:46.00 | 8:17.00 | 255450 | 292724 10 | 65:03.00 | 5:08.01 | 292725 | 315825
Range status and errors
Selected range
Filename D:\My musica\YuJeong Lee - Sinfonia Concertante\YuJeong Lee, Florian Krumpock, Norddeutsche Philharmonie Rostok - Sergej Prokofiev- Sinfonia Concertante Op. 125, Romeo & Julia - First Suite Op. 64.wav
Peak level 97.7 % Extraction speed 0.1 X Range quality 100.0 % Test CRC 230EF082 Copy CRC 230EF082 Copy OK
No errors occurred
AccurateRip summary
Track 1 not present in databaseTrack 2 not present in databaseTrack 3 not present in databaseTrack 4 not present in databaseTrack 5 not present in databaseTrack 6 not present in databaseTrack 7 not present in databaseTrack 8 not present in databaseTrack 9 not present in databaseTrack 10 not present in database
None of the tracks are present in the AccurateRip database
End of status report
[teatrix.ru].t9981.torrent 
Торрент: Зарегистрирован [ 2015-10-25 20:37 ] · 5AA800554822ADDB298907966B20D2A7EED1FF0D

Скачать .torrent

Скачать

14 KB

Статус: проверено
Скачан: 1 раз
Размер: 309 MB
terms.php



Быстрый ответ

Имя:

      
Для отправки сообщений необходимо включить JavaScript
Показать сообщения:    

Текущее время: 10-Дек 08:04

Часовой пояс: UTC + 3


Вы можете начинать темы
Вы можете отвечать на сообщения
Вы не можете редактировать свои сообщения
Вы не можете удалять свои сообщения
Вы не можете голосовать в опросах
Вы не можете прикреплять файлы к сообщениям
Вы можете скачивать файлы