(Classical) Carl Philipp Stamitz, Franz Anton Hoffmeister - Viola Concertos - Victoria Chiang, Baltimore Chamber Orchestra, Markand Thakar - 2011, FLAC (image+.cue) lossless


Статистика раздачи [Обновить пиров]
Размер:  302 MB   |    Зарегистрирован:  1 год 1 месяц   |    Скачан:  0 раз

Полного источника не было: Никогда

 
   
 
 
 

[Цитировать]

Carl Philipp Stamitz, Franz Anton Hoffmeister - Viola Concertos - Victoria Chiang, Baltimore Chamber Orchestra, Markand Thakar
Жанр: Classical
Год издания диска: 2011
Издатель (лейбл): Naxos
Номер по каталогу: 8.572162
Дата записи: 2009
Аудиокодек: FLAC
Тип рипа: image+.cue
Битрейт аудио: lossless
Продолжительность: 64:00
Источник: собственный рип
Наличие сканов в содержимом раздачи: да
Треклист:
Carl Philipp Stamitz (1745–1801)
[1]-[3] Viola Concerto No. 1 in D major
Franz Anton Hoffmeister (1754–1812)
[4]-[6] Viola Concerto in D major
[7]-[9] Viola Concerto in B flat major
Исполнители:
Victoria Chiang viola
Baltimore Chamber Orchestra
Markand Thakar

Лог создания рипа

Exact Audio Copy V1.0 beta 3 from 29. August 2011
EAC extraction logfile from 25. November 2013, 1:06
Victoria Chiang, Baltimore Chamber Orchestra, Markand Thakar / Stamitz, Hoffmeister - Viola Concertos
Used drive : HL-DT-STDVDRAM GSA-4083N Adapter: 1 ID: 0
Read mode : SecureUtilize accurate stream : YesDefeat audio cache : YesMake use of C2 pointers : No
Read offset correction : 667Overread into Lead-In and Lead-Out : NoFill up missing offset samples with silence : YesDelete leading and trailing silent blocks : NoNull samples used in CRC calculations : YesUsed interface : Native Win32 interface for Win NT & 2000
Used output format : User Defined EncoderSelected bitrate : 896 kBit/sQuality : HighAdd ID3 tag : NoCommand line compressor : C:\Program Files\Exact Audio Copy\Flac\flac.exeAdditional command line options : -V -8 %source%
TOC of the extracted CD
Track | Start | Length | Start sector | End sector --------------------------------------------------------- 1 | 0:00.00 | 12:01.61 | 0 | 54135 2 | 12:01.61 | 5:38.04 | 54136 | 79489 3 | 17:39.65 | 4:31.35 | 79490 | 99849 4 | 22:11.25 | 9:28.28 | 99850 | 142477 5 | 31:39.53 | 6:58.49 | 142478 | 173876 6 | 38:38.27 | 4:20.72 | 173877 | 193448 7 | 42:59.24 | 9:42.13 | 193449 | 237111 8 | 52:41.37 | 7:14.17 | 237112 | 269678 9 | 59:55.54 | 4:02.21 | 269679 | 287849
Range status and errors
Selected range
Filename J:\New Music\Naxos_8.572162 - Stamitz, Hoffmeister - Viola Concertos\Stamitz, Hoffmeister - Viola Concertos.wav
Peak level 99.8 % Extraction speed 2.8 X Range quality 100.0 % Test CRC 53D846FF Copy CRC 53D846FF Copy OK
No errors occurred
End of status report
==== Log checksum F160796791A34DE56563F4657E604B0E2E17E03AD0D5202D729D21F042826904 ====
[teatrix.ru].t9982.torrent 
Торрент: Зарегистрирован [ 2015-10-25 20:37 ] · 50F9CC82DA9B39BF0BD17B8FD3A7E67C205A4CFA

Скачать .torrent

Скачать

25 KB

Статус: проверено
Скачан: 0 раз
Размер: 302 MB
terms.php



Быстрый ответ

Имя:

      
Для отправки сообщений необходимо включить JavaScript
Показать сообщения:    

Текущее время: 08-Дек 14:56

Часовой пояс: UTC + 3


Вы можете начинать темы
Вы можете отвечать на сообщения
Вы не можете редактировать свои сообщения
Вы не можете удалять свои сообщения
Вы не можете голосовать в опросах
Вы не можете прикреплять файлы к сообщениям
Вы можете скачивать файлы