(Orchestra, Piano, Soprano, Flute, Guitar) Hikaru Hayashi - Symphony "Canciones"; Way, Child and the Lines, Sky; Hamon {Yuji Takahashi, Tadaaki Otaka, Yumi Aikawa, Masami Nakagawa, Ichiro Suzuki} - 1985 (2007), FLAC (tracks+.cue), lossless


Статистика раздачи [Обновить пиров]
Размер:  196 MB   |    Зарегистрирован:  1 год 1 месяц   |    Скачан:  0 раз

Полного источника не было: Никогда

Личеров:  1  [  0 KB/s  ]   Подробная статистика пиров
 
   
 
 
 

[Цитировать]

Hikaru Hayashi - Symphony "Canciones"; Way, Child and the Lines, Sky; Hamon
Жанр: Orchestra, Piano, Soprano, Flute, Guitar
Страна-производитель диска: Япония
Год издания диска: 1985 (2007)
Издатель (лейбл): Camerata
Номер по каталогу: CMCD-99044
Аудиокодек: FLAC
Тип рипа: tracks+.cue
Битрейт аудио: lossless
Продолжительность: 46:49
Источник (релизер): what.cd
Наличие сканов в содержимом раздачи: да
Треклист:
The Second Symphony "Canciones" (1985)
01. I (4:00)
02. II (5:50)
03. III (7:08)
04. IV (6:35)
The Way, Child and the Lines, Sky (Pieces for Soprano and Flute)
05. I. The Way (1966) (6:52)
06. II. Child and the Lines (1966) (4:00)
07. III. Sky (1968) (7:57)
08. Hamon (1964) (4:27)
Исполнители:
Yuji Takahashi - piano (#1-4)
Tadaaki Otaka - conductor (#1-4)
Tokyo Philharmonic Orchestra (#1-4)
Yumi Aikawa - soprano (#5-7)
Masami Nakagawa - flute (#5-7)
Ichiro Suzuki - guitar (#8)
#1-4 recorded live at Tokyo Bunka-Kaikan, Large Hall, Tokyo on May 18, 1985.
#5-7 recorded at Niiza Shimin-Kaikan, Saitama on May 1, 1985.
#8 recorded at Iruma-shi Shimin Kaikan, Saitama on May 1, 1977.

Лог создания рипа

Exact Audio Copy V1.0 beta 3 from 29. August 2011
EAC extraction logfile from 19. December 2013, 20:28
Various / Works
Used drive : TSSTcorpDVD+-RW TS-U633F Adapter: 1 ID: 0
Read mode : SecureUtilize accurate stream : YesDefeat audio cache : YesMake use of C2 pointers : No
Read offset correction : 6Overread into Lead-In and Lead-Out : NoFill up missing offset samples with silence : YesDelete leading and trailing silent blocks : NoNull samples used in CRC calculations : YesUsed interface : Installed external ASPI interfaceGap handling : Appended to previous track
Used output format : User Defined EncoderSelected bitrate : 1024 kBit/sQuality : HighAdd ID3 tag : NoCommand line compressor : C:\Program Files\Exact Audio Copy\Flac\flac.exeAdditional command line options : -8 -V -T "ARTIST=%artist%" -T "TITLE=%title%" -T "ALBUM=%albumtitle%" -T "DATE=%year%" -T "TRACKNUMBER=%tracknr%" -T "GENRE=%genre%" -T "PERFORMER=%albuminterpret%" -T "COMPOSER=%composer%" %haslyrics%--tag-from-file=LYRICS="%lyricsfile%"%haslyrics% -T "ALBUMARTIST=%albumartist%" -T "DISCNUMBER=%cdnumber%" -T "TOTALDISCS=%totalcds%" -T "TOTALTRACKS=%numtracks%" -T "COMMENT=%comment%" %source% -o %dest%
TOC of the extracted CD
Track | Start | Length | Start sector | End sector --------------------------------------------------------- 1 | 0:00.00 | 4:00.28 | 0 | 18027 2 | 4:00.28 | 5:50.02 | 18028 | 44279 3 | 9:50.30 | 7:07.58 | 44280 | 76362 4 | 16:58.13 | 6:35.35 | 76363 | 106022 5 | 23:33.48 | 6:51.60 | 106023 | 136907 6 | 30:25.33 | 4:00.27 | 136908 | 154934 7 | 34:25.60 | 7:56.60 | 154935 | 190694 8 | 42:22.45 | 4:26.68 | 190695 | 210712
Track 1
Filename H:\flac\hikaru\01 - Tokyo Philharmonic Orchestra, Yuji Takahashi - The Second Symphony ''Canciones'' - I.wav
Pre-gap length 0:00:02.00
Peak level 58.7 % Extraction speed 2.1 X Track quality 99.9 % Test CRC EBD39999 Copy CRC EBD39999 Accurately ripped (confidence 1) [BC64BDC7] (AR v2) Copy OK
Track 2
Filename H:\flac\hikaru\02 - Tokyo Philharmonic Orchestra, Yuji Takahashi - The Second Symphony ''Canciones'' - II.wav
Peak level 83.8 % Extraction speed 3.0 X Track quality 100.0 % Test CRC 45609FF4 Copy CRC 45609FF4 Accurately ripped (confidence 1) [045B516F] (AR v2) Copy OK
Track 3
Filename H:\flac\hikaru\03 - Tokyo Philharmonic Orchestra, Yuji Takahashi - The Second Symphony ''Canciones'' - III.wav
Pre-gap length 0:00:02.81
Peak level 65.8 % Extraction speed 3.5 X Track quality 100.0 % Test CRC 2219AF2E Copy CRC 2219AF2E Accurately ripped (confidence 1) [2117093A] (AR v2) Copy OK
Track 4
Filename H:\flac\hikaru\04 - Tokyo Philharmonic Orchestra, Yuji Takahashi - The Second Symphony ''Canciones'' - IV.wav
Peak level 91.0 % Extraction speed 3.9 X Track quality 100.0 % Test CRC 20745F23 Copy CRC 20745F23 Accurately ripped (confidence 1) [70F3B076] (AR v2) Copy OK
Track 5
Filename H:\flac\hikaru\05 - Yumi Aikawa, Masami Nakagawa - The Way, Child and the Lines, Sky - I. The Way.wav
Pre-gap length 0:00:08.52
Peak level 77.8 % Extraction speed 4.2 X Track quality 100.0 % Test CRC 4ED6A0E0 Copy CRC 4ED6A0E0 Accurately ripped (confidence 1) [067F5A3C] (AR v2) Copy OK
Track 6
Filename H:\flac\hikaru\06 - Yumi Aikawa, Masami Nakagawa - The Way, Child and the Lines, Sky - II. Child and the Lines.wav
Peak level 79.6 % Extraction speed 3.4 X Track quality 99.9 % Test CRC 791DFEDC Copy CRC 791DFEDC Accurately ripped (confidence 1) [E59DEE49] (AR v2) Copy OK
Track 7
Filename H:\flac\hikaru\07 - Yumi Aikawa, Masami Nakagawa - The Way, Child and the Lines, Sky - III. Sky.wav
Peak level 96.1 % Extraction speed 4.8 X Track quality 100.0 % Test CRC 19F8EEA8 Copy CRC 19F8EEA8 Accurately ripped (confidence 1) [E5771E42] (AR v2) Copy OK
Track 8
Filename H:\flac\hikaru\08 - Ichiro Suzuki - Hamon.wav
Pre-gap length 0:00:08.65
Peak level 44.8 % Extraction speed 3.9 X Track quality 99.9 % Test CRC B0B1C40A Copy CRC B0B1C40A Accurately ripped (confidence 1) [C5D65529] (AR v2) Copy OK
All tracks accurately ripped
No errors occurred
End of status report
==== Log checksum 2232419F8CCF357FCEE0D6E34BE1C9340452363802808A7ACC75056AD41EEE27 ====

Содержание индексной карты (.CUE)

REM GENRE ClassicalREM DATE 1985REM DISCID 580AF908REM COMMENT "ExactAudioCopy v1.0b3"PERFORMER "Various"TITLE "Hikaru Hayashi: Works"FILE "01 - Yuji Takahashi & Tokyo Philharmonic Orchestra - The Second Symphony 'Canciones'- I.wav" WAVE TRACK 01 AUDIO TITLE "The Second Symphony 'Canciones': I" PERFORMER "Yuji Takahashi & Tokyo Philharmonic Orchestra" INDEX 01 00:00:00FILE "02 - Yuji Takahashi & Tokyo Philharmonic Orchestra - The Second Symphony 'Canciones'- II.wav" WAVE TRACK 02 AUDIO TITLE "The Second Symphony 'Canciones': II" PERFORMER "Yuji Takahashi & Tokyo Philharmonic Orchestra" INDEX 01 00:00:00 TRACK 03 AUDIO TITLE "The Second Symphony 'Canciones': III" PERFORMER "Yuji Takahashi & Tokyo Philharmonic Orchestra" INDEX 00 05:47:16FILE "03 - Yuji Takahashi & Tokyo Philharmonic Orchestra - The Second Symphony 'Canciones'- III.wav" WAVE INDEX 01 00:00:00FILE "04 - Yuji Takahashi & Tokyo Philharmonic Orchestra - The Second Symphony 'Canciones'- IV.wav" WAVE TRACK 04 AUDIO TITLE "The Second Symphony 'Canciones': IV" PERFORMER "Yuji Takahashi & Tokyo Philharmonic Orchestra" INDEX 01 00:00:00 TRACK 05 AUDIO TITLE "The Way, Child and the Lines, Sky: I. The Way" PERFORMER "Yumi Aikawa & Masami Nakagawa" INDEX 00 06:26:71FILE "05 - Yumi Aikawa & Masami Nakagawa - The Way, Child and the Lines, Sky- I. The Way.wav" WAVE INDEX 01 00:00:00FILE "06 - Yumi Aikawa & Masami Nakagawa - The Way, Child and the Lines, Sky- II. Child and the Lines.wav" WAVE TRACK 06 AUDIO TITLE "The Way, Child and the Lines, Sky: II. Child and the Lines" PERFORMER "Yumi Aikawa & Masami Nakagawa" INDEX 01 00:00:00FILE "07 - Yumi Aikawa & Masami Nakagawa - The Way, Child and the Lines, Sky- III. Sky.wav" WAVE TRACK 07 AUDIO TITLE "The Way, Child and the Lines, Sky: III. Sky" PERFORMER "Yumi Aikawa & Masami Nakagawa" INDEX 01 00:00:00 TRACK 08 AUDIO TITLE "Hamon" PERFORMER "Ichiro Suzuki" INDEX 00 07:48:11FILE "08 - Ichiro Suzuki - Hamon.wav" WAVE INDEX 01 00:00:00

Отчет CUETools

[CUETools log; Date: 15.01.2014 5:00:12; Version: 2.1.4][CTDB TOCID: xK0RnvROt17kzV9ThBNr8JJa47U-] disk not present in database.[AccurateRip ID: 000e4fd9-0060a012-580af908] found.Track [ CRC | V2 ] Status 01 [17bd5b27|bc64bdc7] (0+1/1) Accurately ripped 02 [f2ad66e4|045b516f] (0+1/1) Accurately ripped 03 [01665ee4|2117093a] (0+1/1) Accurately ripped 04 [f032608a|70f3b076] (0+1/1) Accurately ripped 05 [b147c72e|067f5a3c] (0+1/1) Accurately ripped 06 [cbb337df|e59dee49] (0+1/1) Accurately ripped 07 [52078694|e5771e42] (0+1/1) Accurately ripped 08 [5fe9d4a3|c5d65529] (0+1/1) Accurately ripped
Track Peak [ CRC32 ] [W/O NULL] [ LOG ] -- 96,1 [362C437E] [A3973B22] 01 58,7 [EBD39999] [F86A56D8] CRC32 02 83,8 [45609FF4] [B28688D0] CRC32 03 65,8 [2219AF2E] [92C9E18B] CRC32 04 91,0 [20745F23] [5D920E2C] CRC32 05 77,8 [4ED6A0E0] [939E9BCB] CRC32 06 79,6 [791DFEDC] [E4E5A343] CRC32 07 96,1 [19F8EEA8] [65782333] CRC32 08 44,8 [B0B1C40A] [EBCB3F97] CRC32
[teatrix.ru].t9983.torrent 
Торрент: Зарегистрирован [ 2015-10-25 20:37 ] · AD66B0C99B52054C7039E67BD3A446F15DAE182D

Скачать .torrent

Скачать

17 KB

Статус: проверено
Скачан: 0 раз
Размер: 196 MB
terms.php



Быстрый ответ

Имя:

      
Для отправки сообщений необходимо включить JavaScript
Показать сообщения:    

Текущее время: 03-Дек 16:45

Часовой пояс: UTC + 3


Вы можете начинать темы
Вы можете отвечать на сообщения
Вы не можете редактировать свои сообщения
Вы не можете удалять свои сообщения
Вы не можете голосовать в опросах
Вы не можете прикреплять файлы к сообщениям
Вы можете скачивать файлы