(Classical) Antonio Casimir Cartellieri - Concertos for Clarinet and Orchestra Nos. 1&3, Adagio pastorale (Dieter Klocker, Prague Chamber Orchestra) - 1996, FLAC (image+.cue) lossless


Статистика раздачи [Обновить пиров]
Размер:  218 MB   |    Зарегистрирован:  1 год 1 месяц   |    Скачан:  0 раз

Полного источника не было: Никогда

Личеров:  2  [  0 KB/s  ]   Подробная статистика пиров
 
   
 
 
 

[Цитировать]

Antonio Casimir Cartellieri - Concertos for Clarinet and Orchestra
Жанр: Classical
Страна-производитель диска: Germany
Год издания диска: 1996
Издатель (лейбл): MDG "Gold"
Номер по каталогу: 301 0527-2
Дата записи: 1995
Аудиокодек: FLAC
Тип рипа: image+.cue
Битрейт аудио: lossless
Продолжительность: 56:32
Источник: скачано с avaxhome
Наличие сканов в содержимом раздачи: да
Треклист:
Concerto n° 1 en si bémol majeur
1 - Adagio maestoso & allegro 10:01
2 - Larghetto 4:13
3 - Rondo con variazioni 10:27
4 Adagio pastorale (de Concerto n° 2) 5:39
Concerto n° 3 en mi bémol majeur
5 - Allegro con spirito 9:59
6 - Adagio 5:25
7 - Rondo 10:48
Исполнители:
Dieter Klöcker, clarinet
Prague Chamber Orchestra

Лог создания рипа

Exact Audio Copy V1.0 beta 3 from 29. August 2011
EAC extraction logfile from 27. May 2013, 10:39
Dieter Klöcker - Prague Chamber Orchestra / Cartellieri: Wind Concertos Vol. 1
Used drive : PIONEER BD-RW BDR-206 Adapter: 0 ID: 2
Read mode : SecureUtilize accurate stream : YesDefeat audio cache : YesMake use of C2 pointers : No
Read offset correction : 667Overread into Lead-In and Lead-Out : NoFill up missing offset samples with silence : YesDelete leading and trailing silent blocks : NoNull samples used in CRC calculations : YesUsed interface : Native Win32 interface for Win NT & 2000
Used output format : User Defined EncoderSelected bitrate : 1024 kBit/sQuality : HighAdd ID3 tag : YesCommand line compressor : C:\Program Files\FLAC\flac.exeAdditional command line options : -5 -T "Artist=%artist%" -T "Title=%title%" -T "Album=%albumtitle%" -T "Date=%year%" -T "Tracknumber=%tracknr%" -T "Genre=%genre%" %source% -o %dest%
TOC of the extracted CD
Track | Start | Length | Start sector | End sector --------------------------------------------------------- 1 | 0:00.55 | 10:01.35 | 55 | 45164 2 | 10:02.15 | 4:13.02 | 45165 | 64141 3 | 14:15.17 | 10:26.58 | 64142 | 111149 4 | 24:42.00 | 5:38.65 | 111150 | 136564 5 | 30:20.65 | 9:59.17 | 136565 | 181506 6 | 40:20.07 | 5:24.53 | 181507 | 205859 7 | 45:44.60 | 10:47.67 | 205860 | 254451
Range status and errors
Selected range
Filename F:\=== VINYL RIPS ===\=== EAC===\X FRESH RIP\Cartellieri- Klöcker, PCO - Wind Concertos Vol. 1.wav
Peak level 95.4 % Extraction speed 1.1 X Range quality 100.0 % Copy CRC 73C560EF Copy OK
No errors occurred
AccurateRip summary
Track 1 accurately ripped (confidence 4) [037D15ED] (AR v1)Track 2 accurately ripped (confidence 5) [5CB4BA51] (AR v1)Track 3 accurately ripped (confidence 5) [F2E0979B] (AR v1)Track 4 accurately ripped (confidence 5) [4BB62A13] (AR v1)Track 5 accurately ripped (confidence 5) [BE474E32] (AR v1)Track 6 accurately ripped (confidence 5) [3D2C28F8] (AR v1)Track 7 accurately ripped (confidence 5) [63A99CD2] (AR v1)
All tracks accurately ripped
End of status report
---- CUETools DB Plugin V2.1.3
[CTDB TOCID: 4bSjP4V1XvkQNuxt3vOYIhbkV44-] disk not present in database, Submit result: discs with pregaps not supported in this protocol version
==== Log checksum 036C7F910F5633AD2ABEEC2E03002B94D78B718AD746AFDE32ED5604941AA573 ====

Лог проверки качества

AUDIOCHECKER v2.0 beta (build 457) - by Dester - opdester@freemail.hu~~~~~~~~~~~~~~~~~~~~~~~~~~~~~~~~~~-=== DO NOT EDIT THIS FILE! ===-
Path: ...\Cartellieri- Concertos for Clarinet {Germany 1996}
1 -=- Cartellieri- Concertos for Clarinet.flac -=- CDDA (100%)
239924404
[teatrix.ru].t9984.torrent 
Торрент: Зарегистрирован [ 2015-10-25 20:37 ] · 583A764C0C6F9FAF68C8EAC97C902D6B2526FC22

Скачать .torrent

Скачать

18 KB

Статус: проверено
Скачан: 0 раз
Размер: 218 MB
terms.php



Быстрый ответ

Имя:

      
Для отправки сообщений необходимо включить JavaScript
Показать сообщения:    

Текущее время: 03-Дек 16:46

Часовой пояс: UTC + 3


Вы можете начинать темы
Вы можете отвечать на сообщения
Вы не можете редактировать свои сообщения
Вы не можете удалять свои сообщения
Вы не можете голосовать в опросах
Вы не можете прикреплять файлы к сообщениям
Вы можете скачивать файлы