(Classical) Мельцер-Щавиньский, Падеревский – Фортепианные концерты / Melcer & Paderewski – Piano Concertos (Paleczny, Ponti; Strugala) - 1993, FLAC (image+.cue) lossless


Статистика раздачи [Обновить пиров]
Размер:  287 MB   |    Зарегистрирован:  1 год 1 месяц   |    Скачан:  0 раз

Полного источника не было: Никогда

 
   
 
 
 

[Цитировать]

Мельцер-Щавиньский, Падеревский – Фортепианные концерты / Melcer & Paderewski – Piano Concertos (Paleczny, Ponti; Strugała)
Жанр: Classical
Страна-производитель диска: Англия?
Год издания диска: 1993
Издатель (лейбл): Olympia
Номер по каталогу: OCD 398
Дата записи: январь 1982 г. (1 — 3); январь 1992 г. (4 — 6).
Аудиокодек: FLAC
Тип рипа: image+.cue
Битрейт аудио: lossless
Продолжительность: 01:03:29
Источник: odeonmusic
Наличие сканов в содержимом раздачи: да
Треклист:
Ignacy Jan Paderewski (1860 — 1941).
Фортепианный концерт a-moll, op. 17 (1888 — 1889).
01. I. Allegro [16:35].
02. II. Romanze. Andante [09:59].
03. III. Finale. Allegro molto vivace [08:00].
Генрик Мельцер-Щавиньский (1869 — 1928).
Фортепианный концерт № 1 e-moll (1892 — 1894).
04. I. Maestoso più mosso [13:31].
05. II. Andantino. —
(06.) III. Vivo, ma non troppo e poi molto accelerando [15:08].
Исполнители:
Концерт Падеревского (1 — 3):
Piotr Paleczny (фортепиано).
Polish Radio National Symphony Orchestra in Katowice.
Концерт Мельцера (4 — 6):
Michael Ponti (фортепиано).
Warsaw National Philharmonic Orchestra.
Дирижер Tadeusz Strugała.

Лог создания рипа

Exact Audio Copy V1.0 beta 3 from 29. August 2011
EAC extraction logfile from 22. November 2012, 11:34
Various Artists / Paderewski, Melcer – Piano Concertos – Paleczny, Strugla
Used drive : TSSTcorpCDDVDW SH-222BB Adapter: 2 ID: 1
Read mode : SecureUtilize accurate stream : YesDefeat audio cache : YesMake use of C2 pointers : No
Read offset correction : 6Overread into Lead-In and Lead-Out : NoFill up missing offset samples with silence : YesDelete leading and trailing silent blocks : NoNull samples used in CRC calculations : YesUsed interface : Native Win32 interface for Win NT & 2000
Used output format : User Defined EncoderSelected bitrate : 1024 kBit/sQuality : HighAdd ID3 tag : NoCommand line compressor : C:\Program Files\Exact Audio Copy\Flac\flac.exeAdditional command line options : -8 -V -T "TITLE=%title%" -T "ARTIST=%artist%" -T "ALBUMARTIST=%albumartist%" -T "ALBUM=%albumtitle%" -T "DATE=%year%" -T "TRACKNUMBER=%tracknr%" -T "TRACKTOTAL=%numtracks%" -T "GENRE=%genre%" -T "COMMENT=%comment%" -T "PERFORMER=%albuminterpret%" -T "COMPOSER=%composer%" %source% -o %dest%
TOC of the extracted CD
Track | Start | Length | Start sector | End sector --------------------------------------------------------- 1 | 0:00.00 | 16:38.40 | 0 | 74889 2 | 16:38.40 | 10:02.18 | 74890 | 120057 3 | 26:40.58 | 8:05.35 | 120058 | 156467 4 | 34:46.18 | 13:35.40 | 156468 | 217632 5 | 48:21.58 | 15:07.40 | 217633 | 285697
Range status and errors
Selected range
Filename G:\Ripped general\[1401] Paderewski, Melcer – Piano Concertos – Paleczny, Strugla\Paderewski, Melcer – Piano Concertos – Paleczny, Strugla.wav
Peak level 97.3 % Extraction speed 7.8 X Range quality 100.0 % Test CRC A0678C56 Copy CRC A0678C56 Copy OK
No errors occurred
AccurateRip summary
Track 1 not present in databaseTrack 2 not present in databaseTrack 3 not present in databaseTrack 4 not present in databaseTrack 5 not present in database
None of the tracks are present in the AccurateRip database
End of status report

Содержание индексной карты (.CUE)

REM GENRE ClassicalREM DATE 1993REM DISCID 2C0EE105REM COMMENT "ExactAudioCopy v1.0b3"PERFORMER "Tadeusz Strugala"TITLE "Paderewski, Melcer – Piano Concertos – Paleczny, Strugala"FILE "Paderewski, Melcer – Piano Concertos – Paleczny, Strugala.flac" WAVE TRACK 01 AUDIO TITLE "Paderewski - Piano Concerto in A minor, Op. 17 - I. Allegro" PERFORMER "Piotr Paleczny & Tadeusz Strugala" INDEX 01 00:00:00 TRACK 02 AUDIO TITLE "Paderewski - Piano Concerto in A minor, Op. 17 - II. Romanze. Andante" PERFORMER "Piotr Paleczny & Tadeusz Strugala" INDEX 00 16:34:68 INDEX 01 16:38:40 TRACK 03 AUDIO TITLE "Paderewski - Piano Concerto in A minor, Op. 17 - III. Finale. Allegro molto vivace" PERFORMER "Piotr Paleczny & Tadeusz Strugala" INDEX 00 26:37:73 INDEX 01 26:40:58 TRACK 04 AUDIO TITLE "Melcer - Piano concerto No. 1 in E minor - I. Maestoso piu mosso" PERFORMER "Michael Ponti & Tadeusz Strugala" INDEX 00 34:40:40 INDEX 01 34:46:18 TRACK 05 AUDIO TITLE "Melcer - Piano concerto No. 1 in E minor - II. Andantino - III. Vivo ma non troppo e poi molto accelerando" PERFORMER "Michael Ponti & Tadeusz Strugala" INDEX 00 48:17:05 INDEX 01 48:21:58

Вариант индексной карты (.CUE) с разделением второй и третьей частей концерта Мельцера

REM GENRE ClassicalREM DATE 1993REM DISCID 2C0EE105REM COMMENT "ExactAudioCopy v1.0b3"PERFORMER "Tadeusz Strugala"TITLE "Paderewski, Melcer – Piano Concertos – Paleczny, Strugala"FILE "Paderewski, Melcer – Piano Concertos – Paleczny, Strugala.flac" WAVE TRACK 01 AUDIO TITLE "Paderewski - Piano Concerto in A minor, Op. 17 - I. Allegro" PERFORMER "Piotr Paleczny & Tadeusz Strugala" INDEX 01 00:00:00 TRACK 02 AUDIO TITLE "Paderewski - Piano Concerto in A minor, Op. 17 - II. Romanze. Andante" PERFORMER "Piotr Paleczny & Tadeusz Strugala" INDEX 00 16:34:68 INDEX 01 16:38:40 TRACK 03 AUDIO TITLE "Paderewski - Piano Concerto in A minor, Op. 17 - III. Finale. Allegro molto vivace" PERFORMER "Piotr Paleczny & Tadeusz Strugala" INDEX 00 26:37:73 INDEX 01 26:40:58 TRACK 04 AUDIO TITLE "Melcer - Piano concerto No. 1 in E minor - I. Maestoso piu mosso" PERFORMER "Michael Ponti & Tadeusz Strugala" INDEX 00 34:40:40 INDEX 01 34:46:18 TRACK 05 AUDIO TITLE "Melcer - Piano concerto No. 1 in E minor - II. Andantino -" PERFORMER "Michael Ponti & Tadeusz Strugala" INDEX 00 48:17:05 INDEX 01 48:21:58 TRACK 06 AUDIO TITLE "Melcer - Piano concerto No. 1 in E minor - III. Vivo ma non troppo e poi molto accelerando" PERFORMER "Michael Ponti & Tadeusz Strugala" INDEX 01 53:04:02
[teatrix.ru].t9985.torrent 
Торрент: Зарегистрирован [ 2015-10-25 20:37 ] · 4E87A1CFFD825D6CC78E4EDA42217B5408941DE6

Скачать .torrent

Скачать

12 KB

Статус: проверено
Скачан: 0 раз
Размер: 287 MB
terms.php



Быстрый ответ

Имя:

      
Для отправки сообщений необходимо включить JavaScript
Показать сообщения:    

Текущее время: 10-Дек 19:43

Часовой пояс: UTC + 3


Вы можете начинать темы
Вы можете отвечать на сообщения
Вы не можете редактировать свои сообщения
Вы не можете удалять свои сообщения
Вы не можете голосовать в опросах
Вы не можете прикреплять файлы к сообщениям
Вы можете скачивать файлы