(Classical) Robert Schumann - Cello Concerto, Pyotr Tchaikovsky / Чайковский - Variation on a Rococo Theme for Cello and Orchestra / Вариации на тему рококо. J. Timm, K. Masur - 1995, FLAC (image+.cue) lossless


Статистика раздачи [Обновить пиров]
Размер:  180 MB   |    Зарегистрирован:  1 год 1 месяц   |    Скачан:  0 раз

Полного источника не было: Никогда

 
   
 
 
 

[Цитировать]

Robert Schumann - Cello Concerto, Pyotr Tchaikovsky / Петр Чайковский - Variation on a Rococo Theme for Cello and Orchestra / Вариации на тему рококо. J. Timm, K. Masur
Жанр: Classical
Страна-производитель диска: Germany
Год издания диска: 1995
Издатель (лейбл): Berlin Classics
Номер по каталогу: 0091512BC
Дата записи: 1983
Аудиокодек: FLAC
Тип рипа: image+.cue
Битрейт аудио: lossless
Продолжительность: 41:11
Источник: собственный рип
Наличие сканов в содержимом раздачи: да
Треклист:
Robert Schumann (1810-1856)
Cello Concerto in A minor - 23:30

1. Nicht zu schnel - 11:32
2. Langsam - 4:08
3. Sehr lebhaft - 7:49
Петр Чайковский (1840-1893)
4. Variations on a Rococo Theme for Cello and Orchestra in A major - 17:41

Исполнители:
Jurnjakob Timm,
Violoncello • violoncelle
Gewandhausorchester Leipzig,
KURT MASUR

Лог создания рипа

Exact Audio Copy V1.0 beta 3 from 29. August 2011
Отчёт EAC об извлечении, выполненном 2. января 2014, 12:38
Tchaikovsky and Shumann / Cello Concerto and Rococo Variations
Дисковод: TSSTcorpBDDVDW SE-506BB Adapter: 1 ID: 0
Режим чтения : ДостоверностьИспользование точного потока : ДаОтключение кэша аудио : ДаИспользование указателей C2 : Нет
Коррекция смещения при чтении : 6Способность читать области Lead-in и Lead-out : НетЗаполнение пропущенных сэмплов тишиной : ДаУдаление блоков с тишиной в начале и конце : НетПри вычислениях CRC использовались нулевые сэмплы : ДаИнтерфейс : Встроенный Win32-интерфейс для Win NT/2000
Выходной формат : Пользовательский кодировщикВыбранный битрейт : 768 kBit/sКачество : ВысокийДобавление ID3-тега : НетУтилита сжатия : E:\Program Files\audio\EAC\FLAC\FLAC.EXEДополнительные параметры : -6 -V -T "ARTIST=%artist%" -T "TITLE=%title%" -T "ALBUM=%albumtitle%" -T "DATE=%year%" -T "TRACKNUMBER=%tracknr%" -T "GENRE=%genre%" -T "COMMENT=%comment%" -T "BAND=%albuminterpret%" -T "ALBUMARTIST=%albuminterpret%" -T "COMPOSER=%composer%" %haslyrics%--tag-from-file=LYRICS="%lyricsfile%"%haslyrics% -T "DISCNUMBER=%cdnumber%" -T "TOTALDISCS=%totalcds%" -T "TOTALTRACKS=%numtracks%" %hascover%--picture="%coverfile%"%hascover% %source% -o %dest%
TOC извлечённого CD
Трек | Старт | Длительность | Начальный сектор | Конечный сектор --------------------------------------------------------------------- 1 | 0:00.00 | 11:32.35 | 0 | 51934 2 | 11:32.35 | 4:07.57 | 51935 | 70516 3 | 15:40.17 | 7:59.08 | 70517 | 106449 4 | 23:39.25 | 17:41.42 | 106450 | 186066
Характеристики диапазона извлечения и сообщения об ошибках
Выбранный диапазон
Имя файла F:\_Music\_Music\Classics\Shumann and Tchaikovsky - Cello - Masur, Timm\Shumann and Tchaikovsky - Cello Concerto and Rococo Variations.wav
Пиковый уровень 98.1 % Скорость извлечения 1.8 X Качество диапазона 100.0 % CRC копии 927D3A25 Копирование... OK
Ошибок не произошло
AccurateRip: сводка
Трек 1 : извлечено точно (доверие 3) [46EBE28C] (AR v2)Трек 2 : извлечено точно (доверие 3) [B5509CA2] (AR v2)Трек 3 : извлечено точно (доверие 3) [81D2A654] (AR v2)Трек 4 : извлечено точно (доверие 3) [3B90DA6E] (AR v2)
Все треки извлечены точно
Конец отчёта

Содержание индексной карты (.CUE)

REM GENRE ClassicalREM DATE 1985REM DISCID 2C09B004REM COMMENT "ExactAudioCopy v1.0b3"PERFORMER "J. Timm, K. Masur"TITLE "Cello Concerto and Rococo Variations"FILE "Schumann and Tchaikovsky - Cello Concerto and Rococo Variations.flac" WAVE TRACK 01 AUDIO TITLE "Cello Concerto. Nicht zu schnell" PERFORMER "Schumann" INDEX 01 00:00:00 TRACK 02 AUDIO TITLE "Cello Concerto. Langsam" PERFORMER "Schumann" INDEX 01 11:32:35 TRACK 03 AUDIO TITLE "Cello Concerto. Sehr lebhaft" PERFORMER "Schumann" INDEX 01 15:40:17 TRACK 04 AUDIO TITLE "Variations on a Rococo theme for Cello and Orchestra in A major" PERFORMER "Tchaikovsky" INDEX 00 23:29:35 INDEX 01 23:39:25
[teatrix.ru].t9986.torrent 
Торрент: Зарегистрирован [ 2015-10-25 20:37 ] · 853FAEA53505CF64B03F53B9EC5556ADE6922D8A

Скачать .torrent

Скачать

15 KB

Статус: проверено
Скачан: 0 раз
Размер: 180 MB
terms.php



Быстрый ответ

Имя:

      
Для отправки сообщений необходимо включить JavaScript
Показать сообщения:    

Текущее время: 08-Дек 01:17

Часовой пояс: UTC + 3


Вы можете начинать темы
Вы можете отвечать на сообщения
Вы не можете редактировать свои сообщения
Вы не можете удалять свои сообщения
Вы не можете голосовать в опросах
Вы не можете прикреплять файлы к сообщениям
Вы можете скачивать файлы