(Classical) Йозеф Иоахим – Скрипичные концерты № 1 и 2 / Joseph Joachim – Violin Concertos Nos. 1 & 2 (Kim, Halasz) - 2009, FLAC (image+.cue) lossless


Статистика раздачи [Обновить пиров]
Размер:  291 MB   |    Зарегистрирован:  1 год 1 месяц   |    Скачан:  0 раз

Полного источника не было: Никогда

 
   
 
 
 

[Цитировать]

Йозеф Иоахим – Скрипичные концерты № 1 и 2 / Joseph Joachim – Violin Concertos Nos. 1 & 2 (Kim, Halász)
Жанр: Classical
Страна-производитель диска: Германия
Год издания диска: 2009
Издатель (лейбл): Naxos
Номер по каталогу: 8.570991
Дата записи: 18 — 20 февраля 2008
Аудиокодек: FLAC
Тип рипа: image+.cue
Битрейт аудио: lossless
Продолжительность: 01:05:57
Источник: odeonmusic
Наличие сканов в содержимом раздачи: да
Треклист:
Йозеф Иоахим (1831 — 1907).
Скрипичный концерт № 1 g-moll в одной части, op. 3 (ок. 1851).
01. Allegro. – [Кода.] Presto assai [20:07].
Скрипичный концерт № 2 d-moll «В венгерском стиле», op. 11 (1857).
02. I. Allegro un poco maestoso [26:20].
03. II. Романс. Andante [07:29].
04. III. Финал в цыганском духе (Finale alla zingara). Allegro con spirito. — [Кода.] Presto [11:43].
Исполнители:
Suyoen Kim (скрипка).
Staatskapelle Weimar.
Дирижер Michael Halász.

Лог создания рипа

Exact Audio Copy V1.0 beta 3 from 29. August 2011
EAC extraction logfile from 4. October 2013, 18:37
Suyoen Kim / Joachim - Violin Concertos op.3 & op.11 - Suyoen Kim
Used drive : TSSTcorpCDDVDW SH-222BB Adapter: 2 ID: 1
Read mode : SecureUtilize accurate stream : YesDefeat audio cache : YesMake use of C2 pointers : No
Read offset correction : 6Overread into Lead-In and Lead-Out : NoFill up missing offset samples with silence : YesDelete leading and trailing silent blocks : NoNull samples used in CRC calculations : YesUsed interface : Native Win32 interface for Win NT & 2000
Used output format : User Defined EncoderSelected bitrate : 1024 kBit/sQuality : HighAdd ID3 tag : NoCommand line compressor : C:\Program Files\Exact Audio Copy\Flac\flac.exeAdditional command line options : -8 -V -T "TITLE=%title%" -T "ARTIST=%artist%" -T "ALBUMARTIST=%albumartist%" -T "ALBUM=%albumtitle%" -T "DATE=%year%" -T "TRACKNUMBER=%tracknr%" -T "TRACKTOTAL=%numtracks%" -T "GENRE=%genre%" -T "COMMENT=%comment%" -T "PERFORMER=%albuminterpret%" -T "COMPOSER=%composer%" %source% -o %dest%
TOC of the extracted CD
Track | Start | Length | Start sector | End sector --------------------------------------------------------- 1 | 0:00.00 | 20:18.41 | 0 | 91390 2 | 20:18.41 | 26:23.74 | 91391 | 210189 3 | 46:42.40 | 7:29.30 | 210190 | 243894 4 | 54:11.70 | 11:43.05 | 243895 | 296624
Range status and errors
Selected range
Filename G:\Ripped general\[8477] Joachim – Violin Concertos op.3 & op.11 – Suyoen Kim\Joachim - Violin Concertos op.3 & op.11 - Suyoen Kim.wav
Peak level 97.9 % Extraction speed 7.6 X Range quality 100.0 % Test CRC AAF14B3B Copy CRC AAF14B3B Copy OK
No errors occurred
AccurateRip summary
Track 1 accurately ripped (confidence 4) [2E06CA38] (AR v1)Track 2 accurately ripped (confidence 4) [5A0B055C] (AR v1)Track 3 accurately ripped (confidence 4) [D2EC78B3] (AR v1)Track 4 accurately ripped (confidence 4) [A84D6901] (AR v1)
All tracks accurately ripped
End of status report

Содержание индексной карты (.CUE)

REM GENRE ClassicalREM DATE 2009REM DISCID 220F7304REM COMMENT "ExactAudioCopy v1.0b3"PERFORMER "Suyoen Kim & Michael Halasz"TITLE "Joachim – Violin Concertos Nos. 1 & 2 – Suyoen Kim"FILE "Joachim – Violin Concertos Nos. 1 & 2 – Suyoen Kim.flac" WAVE TRACK 01 AUDIO TITLE "Violin Concerto No. 1 in G minor, Op. 3 - Allegro - Presto assai" PERFORMER "Suyoen Kim & Michael Halasz" INDEX 01 00:00:00 TRACK 02 AUDIO TITLE "Violin Concerto No. 2 in D minor 'in Hungarian Style', Op. 11 - I. Allegro un poco maestoso" PERFORMER "Suyoen Kim & Michael Halasz" INDEX 00 20:07:15 INDEX 01 20:18:41 TRACK 03 AUDIO TITLE "Violin Concerto No. 2 in D minor 'in Hungarian Style', Op. 11 - II. Romanze. Andante - Allegretto" PERFORMER "Suyoen Kim & Michael Halasz" INDEX 00 46:38:16 INDEX 01 46:42:40 TRACK 04 AUDIO TITLE "Violin Concerto No. 2 in D minor 'in Hungarian Style', Op. 11 - III. Finale alla zingara. Allegro con spirito" PERFORMER "Suyoen Kim & Michael Halasz" INDEX 01 54:11:70
[teatrix.ru].t9987.torrent 
Торрент: Зарегистрирован [ 2015-10-25 20:37 ] · 8989041CD6DF2EF61F19D5A67CA660ACF1CE9892

Скачать .torrent

Скачать

12 KB

Статус: проверено
Скачан: 0 раз
Размер: 291 MB
terms.php



Быстрый ответ

Имя:

      
Для отправки сообщений необходимо включить JavaScript
Показать сообщения:    

Текущее время: 09-Дек 20:26

Часовой пояс: UTC + 3


Вы можете начинать темы
Вы можете отвечать на сообщения
Вы не можете редактировать свои сообщения
Вы не можете удалять свои сообщения
Вы не можете голосовать в опросах
Вы не можете прикреплять файлы к сообщениям
Вы можете скачивать файлы