(Classicism/Romanticism) Promenade Concert - I Solisti Italiani - 2006, FLAC (image+.cue) lossless


Статистика раздачи [Обновить пиров]
Размер:  319 MB   |    Зарегистрирован:  1 год 1 месяц   |    Скачан:  0 раз

Полного источника не было: Никогда

Личеров:  5  [  0 KB/s  ]   Подробная статистика пиров
 
   
 
 
 

[Цитировать]

Promenade Concert - I Solisti Italiani
Жанр: Classicism/Romanticism
Страна-производитель диска: Japan
Год издания диска: 2006
Издатель (лейбл): DENON
Номер по каталогу: COCO-70833
Дата записи: 1991
Аудиокодек: FLAC
Тип рипа: image+.cue
Битрейт аудио: lossless
Продолжительность: 65'57
Источник: собственный рип
Наличие сканов в содержимом раздачи: да

Треклист:

Bela Bartok [arr. A. Willner]
Rumanian Folk Dances(Román népi táncok), Sz56 (1915)
1. Joc cu bâta (Dance with sticks): Molto moderato
2. Brâul (Waistband dance); Allegro
3. Ре loc (Stamping dance); Moderato
4. Buciumeana (Hornpipe dance); Andante
5. Poarga româneasca (Rumanian polka); Allegro
6. I Marunţel from Belényes (Quick dance); Allegro
7. II Marunţel from Nyágra (Quick dance); Allegro vivace
8. Luigi Boccherini: Variazioni sulla Ritirata notturna di Madrid, Op.57 No.6, G.418, for fortepiano, 2 violins, viola & violoncello
9. Samuel Barber: Adagio for string orchestra-from String Quartet No.1, Op.11
10. Luigi Boccherini: Minuetto-from String Quintet, Op.13 (11) No.5, G275
11. Giovanni Bottesini: [Tarantella for double bass & string orchestra [arr. P.Cognolato]
12. Pyotr Tchaikovsky: Andante cantabile-from String Quartet [ No.1, Op.11
13. Johann Strauss II/Josef Strauss: Pizzicato Polka
14. Joaquin Turina: la oración del torero, Op.34 (1925)
15. Joseph Haydn (? R. Hoffstetter): Serenade-from String Quartet, Op.3 No.5, Hob.III-17
Edvard Grieg: Elegiac Melodies, Op.34
16. Hjertesår (The wounded heart/Herzwunden)
17. Våren (The last spring/Letzter Frühling)
18. Benjamin Britten: Playful Pizzicato-from Simple Symphony, Op.4 (1925)

Исполнители:

I Solisti Italiani
violins:
Paolo Ciociola, Luca Fanfoni, Fedrico Guglielmo
Giovanni Gugiielmo, Gigino Maestri, Giulio Franzetti

violas:
Alfonso Ghedin, Marcello Turio
violoncellos:
Alfredo Riccardi, Giorgio Ravenna
double bass:
Gianni Amadio, Alessandro Sbrogio
harpsichord/fortepiano:
Edoardo Farina

EAC log

Exact Audio Copy V1.0 beta 3 from 29. August 2011
EAC extraction logfile from 22. December 2013, 11:38
I Solisti Italiani / Promenade Concert
Used drive : Optiarc DVD RW AD-7173A Adapter: 3 ID: 0
Read mode : SecureUtilize accurate stream : YesDefeat audio cache : YesMake use of C2 pointers : No
Read offset correction : 48Overread into Lead-In and Lead-Out : NoFill up missing offset samples with silence : YesDelete leading and trailing silent blocks : NoNull samples used in CRC calculations : YesUsed interface : Native Win32 interface for Win NT & 2000
Used output format : Internal WAV RoutinesSample format : 44.100 Hz; 16 Bit; Stereo
TOC of the extracted CD
Track | Start | Length | Start sector | End sector --------------------------------------------------------- 1 | 0:00.00 | 1:23.02 | 0 | 6226 2 | 1:23.02 | 0:29.08 | 6227 | 8409 3 | 1:52.10 | 1:21.02 | 8410 | 14486 4 | 3:13.12 | 2:08.70 | 14487 | 24156 5 | 5:22.07 | 0:30.50 | 24157 | 26456 6 | 5:52.57 | 0:13.10 | 26457 | 27441 7 | 6:05.67 | 0:44.10 | 27442 | 30751 8 | 6:50.02 | 6:26.28 | 30752 | 59729 9 | 13:16.30 | 7:08.52 | 59730 | 91881 10 | 20:25.07 | 3:57.23 | 91882 | 109679 11 | 24:22.30 | 5:51.62 | 109680 | 136066 12 | 30:14.17 | 7:27.38 | 136067 | 169629 13 | 37:41.55 | 2:15.15 | 169630 | 179769 14 | 39:56.70 | 9:39.55 | 179770 | 223249 15 | 49:36.50 | 5:28.47 | 223250 | 247896 16 | 55:05.22 | 3:42.68 | 247897 | 264614 17 | 58:48.15 | 5:29.47 | 264615 | 289336 18 | 64:17.62 | 3:15.60 | 289337 | 304021
Range status and errors
Selected range
Filename C:\Scanned\1\I Solisti Italiani - Promenade Concert.wav
Peak level 99.5 % Extraction speed 5.3 X Range quality 100.0 % Copy CRC 2780598D Copy OK
No errors occurred
AccurateRip summary
Track 1 accurately ripped (confidence 2) [5FFBB9B2] (AR v2)Track 2 accurately ripped (confidence 2) [F2261DFD] (AR v2)Track 3 accurately ripped (confidence 2) [70E24281] (AR v2)Track 4 accurately ripped (confidence 2) [2C95614C] (AR v2)Track 5 accurately ripped (confidence 2) [EFE9785A] (AR v2)Track 6 accurately ripped (confidence 2) [51B09C39] (AR v2)Track 7 accurately ripped (confidence 2) [A44782E4] (AR v2)Track 8 accurately ripped (confidence 2) [C9F33003] (AR v2)Track 9 accurately ripped (confidence 2) [B0CEAB4E] (AR v2)Track 10 accurately ripped (confidence 2) [61F6569C] (AR v2)Track 11 accurately ripped (confidence 2) [B3934195] (AR v2)Track 12 accurately ripped (confidence 2) [CA51959A] (AR v2)Track 13 accurately ripped (confidence 2) [62DF78AF] (AR v2)Track 14 accurately ripped (confidence 2) [B5ED9472] (AR v2)Track 15 accurately ripped (confidence 2) [905B07AE] (AR v2)Track 16 accurately ripped (confidence 2) [434CDB0A] (AR v2)Track 17 accurately ripped (confidence 2) [6F852A9F] (AR v2)Track 18 accurately ripped (confidence 2) [DAE37136] (AR v2)
All tracks accurately ripped
End of status report
==== Log checksum 958E17AC6D7AEF15B96FC8A62DA7E80C3F98A1BD2926C55B7E2B07DF63EDB4B8 ====
[teatrix.ru].t9988.torrent 
Торрент: Зарегистрирован [ 2015-10-25 20:37 ] · 3D7E325285C3D92A965DF8DB4573E49C8703B036

Скачать .torrent

Скачать

13 KB

Статус: проверено
Скачан: 0 раз
Размер: 319 MB
terms.php



Быстрый ответ

Имя:

      
Для отправки сообщений необходимо включить JavaScript
Показать сообщения:    

Текущее время: 09-Дек 03:05

Часовой пояс: UTC + 3


Вы можете начинать темы
Вы можете отвечать на сообщения
Вы не можете редактировать свои сообщения
Вы не можете удалять свои сообщения
Вы не можете голосовать в опросах
Вы не можете прикреплять файлы к сообщениям
Вы можете скачивать файлы