(Classical, Concerto, Flute) Vivaldi - The Four Seasons, Flute Concertos RV 430, 783, 541 {Jean-Pierre Rampal, Franz Liszt Chamber Orchestra} - 1993, FLAC (tracks+.cue), lossless


Статистика раздачи [Обновить пиров]
Размер:  283 MB   |    Зарегистрирован:  1 год 1 месяц   |    Скачан:  0 раз

Полного источника не было: Никогда

Личеров:  1  [  0 KB/s  ]   Подробная статистика пиров
 
   
 
 
 

[Цитировать]

Jean-Pierre Rampal & Franz Liszt Chamber Orchestra - Vivaldi: The Four Seasons
Жанр: Classical, Concerto, Flute
Страна-производитель диска: США
Год издания диска: 1993
Издатель (лейбл): Sony Classical
Номер по каталогу: SK 53105
Аудиокодек: FLAC
Тип рипа: tracks+.cue
Битрейт аудио: lossless
Продолжительность: 62:04
Источник (релизер): zaxedor (what)
Наличие сканов в содержимом раздачи: нет
Треклист:
Antonio Vivaldi (1678-1741)
Concerto in E major, Op.8 No.1, RV 269 "Spring"
01. I. Allegro (3:28)
02. II. Largo e pianissimo sempre (1:56)
03. III. Allegro (3:36)
Concerto in G minor, Op.8 No.2, RV 315 "Summer"
04. I. Allegro non molto (4:55)
05. II. Adagio (1:55)
06. III. Presto (2:45)
Concerto in F major, Op.8 No.3, RV 293 "Autumn"
07. I. Allegro (4:37)
08. II. Adagio molto (1:54)
09. III. Allegro (3:19)
Concerto in F minor, Op.8 No.4, RV 297 "Winter"
10. I. Allegro non molto (3:27)
11. II. Largo (1:58)
12. III. Allegro (3:03)
Concerto for Flute, Strings and Basso continuo in E minor, RV 430 "Darmstadt Concerto"
13. I. Allegro (2:24)
14. II. Largo (2:46)
15. III. Poco Allegro (2:49)
Concerto for Flute, Strings and Basso continuo in D major, RV 783
16. I. Allegro (2:36)
17. II. Largo (3:18)
18. III. Allegro (3:25)
Concerto for Flute (Violin), Organ, Strings and Basso continuo in D minor, RV 541
19. I. Allegro (3:30)
20. II. Grave (2:14)
21. III. Allegro (2:09)
Исполнители:
Jean-Pierre Rampal - flute
Zsuza Pertis - organ (#19-21)
Franz Liszt Chamber Orchestra
Janos Rolla - violin, conductor
Recorded at the Italian Institute, Budapest on May 10-13, 1992.

Лог создания рипа

X Lossless Decoder version 20130407 (143.0)
XLD extraction logfile from 2013-05-25 13:32:14 -0700
Antonio Vivaldi / The Four Seasons (Franz Liszt Chamber Orchestra feat. flute: Jean-Pierre Rampal, organ: Zsuzsa Pertis, premier violin: János Rolla)
Used drive : MATSHITA DVD-R UJ-898 (revision HC10)Media type : Pressed CD
Ripper mode : XLD Secure RipperDisable audio cache : OK for the drive with a cache less than 1375KiBMake use of C2 pointers : NORead offset correction : 102Max retry count : 20Gap status : Analyzed, Appended (except HTOA)
TOC of the extracted CD Track | Start | Length | Start sector | End sector --------------------------------------------------------- 1 | 00:00:00 | 03:28:05 | 0 | 15604 2 | 03:28:05 | 01:56:15 | 15605 | 24319 3 | 05:24:20 | 03:35:60 | 24320 | 40504 4 | 09:00:05 | 04:55:17 | 40505 | 62646 5 | 13:55:22 | 01:54:58 | 62647 | 71254 6 | 15:50:05 | 02:45:02 | 71255 | 83631 7 | 18:35:07 | 04:36:40 | 83632 | 104371 8 | 23:11:47 | 01:53:48 | 104372 | 112894 9 | 25:05:20 | 03:18:62 | 112895 | 127806 10 | 28:24:07 | 03:26:45 | 127807 | 143301 11 | 31:50:52 | 01:57:60 | 143302 | 152136 12 | 33:48:37 | 03:02:73 | 152137 | 165859 13 | 36:51:35 | 02:23:65 | 165860 | 176649 14 | 39:15:25 | 02:45:60 | 176650 | 189084 15 | 42:01:10 | 02:49:10 | 189085 | 201769 16 | 44:50:20 | 02:35:72 | 201770 | 213466 17 | 47:26:17 | 03:17:45 | 213467 | 228286 18 | 50:43:62 | 03:25:10 | 228287 | 243671 19 | 54:08:72 | 03:30:18 | 243672 | 259439 20 | 57:39:15 | 02:13:42 | 259440 | 269456 21 | 59:52:57 | 02:08:48 | 269457 | 279104
List of alternate offset correction values # | Absolute | Relative | Confidence ------------------------------------------ 1 | -303 | -405 | 6
AccurateRip Summary (DiscID: 00304c56-02df0f66-0c0e8915) Track 01 : OK (v1, confidence 5/11) Track 02 : OK (v1, confidence 5/11) Track 03 : OK (v1, confidence 5/11) Track 04 : OK (v1, confidence 5/11) Track 05 : OK (v1, confidence 5/11) Track 06 : OK (v1, confidence 5/11) Track 07 : OK (v1, confidence 5/11) Track 08 : OK (v1, confidence 5/11) Track 09 : OK (v1, confidence 5/11) Track 10 : OK (v1, confidence 5/11) Track 11 : OK (v1, confidence 5/11) Track 12 : OK (v1, confidence 5/11) Track 13 : OK (v1, confidence 5/11) Track 14 : OK (v1, confidence 5/11) Track 15 : OK (v1, confidence 5/11) Track 16 : OK (v1, confidence 5/11) Track 17 : OK (v1, confidence 5/11) Track 18 : OK (v1, confidence 5/11) Track 19 : OK (v1, confidence 5/11) Track 20 : OK (v1, confidence 5/11) Track 21 : OK (v1, confidence 5/11) ->All tracks accurately ripped.
All Tracks Album gain : 1.11 dB Peak : 0.974121 Statistics Read error : 0 Jitter error (maybe fixed) : 0 Retry sector count : 0 Damaged sector count : 0
Track 01 Filename : /Users/Ben/Music/Antonio Vivaldi - The Four Seasons (Franz Liszt Chamber Orchestra feat. flute: Jean-Pierre Rampal, organ: Zsuzsa Pertis, premier violin: János Rolla) (1993) [FLAC]/01 Concerto in E major, Op. 8 No.1, RV 269 "Spring": I. Allegro.flac Pre-gap length : 00:02:00
Track gain : -1.29 dB Peak : 0.912323 CRC32 hash (test run) : 3ECA0FBB CRC32 hash : 3ECA0FBB CRC32 hash (skip zero) : AF3AD374 AccurateRip v1 signature : 94021E11 AccurateRip v2 signature : 16D7EE96 ->Accurately ripped (v1, confidence 5/11) Statistics Read error : 0 Jitter error (maybe fixed) : 0 Retry sector count : 0 Damaged sector count : 0
Track 02 Filename : /Users/Ben/Music/Antonio Vivaldi - The Four Seasons (Franz Liszt Chamber Orchestra feat. flute: Jean-Pierre Rampal, organ: Zsuzsa Pertis, premier violin: János Rolla) (1993) [FLAC]/02 Concerto in E major, Op. 8 No.1, RV 269 "Spring": II. Largo e pianissimo sempre.flac
Track gain : 6.99 dB Peak : 0.306488 CRC32 hash (test run) : CC974631 CRC32 hash : CC974631 CRC32 hash (skip zero) : CABFEB7C AccurateRip v1 signature : 72C09018 AccurateRip v2 signature : AF619907 ->Accurately ripped (v1, confidence 5/11) Statistics Read error : 0 Jitter error (maybe fixed) : 0 Retry sector count : 0 Damaged sector count : 0
Track 03 Filename : /Users/Ben/Music/Antonio Vivaldi - The Four Seasons (Franz Liszt Chamber Orchestra feat. flute: Jean-Pierre Rampal, organ: Zsuzsa Pertis, premier violin: János Rolla) (1993) [FLAC]/03 Concerto in E major, Op. 8 No.1, RV 269 "Spring": III. Allegro.flac
Track gain : 1.43 dB Peak : 0.751526 CRC32 hash (test run) : 55EF0D8B CRC32 hash : 55EF0D8B CRC32 hash (skip zero) : 8D81B577 AccurateRip v1 signature : 78F83435 AccurateRip v2 signature : AF6E7BF7 ->Accurately ripped (v1, confidence 5/11) Statistics Read error : 0 Jitter error (maybe fixed) : 0 Retry sector count : 0 Damaged sector count : 0
Track 04 Filename : /Users/Ben/Music/Antonio Vivaldi - The Four Seasons (Franz Liszt Chamber Orchestra feat. flute: Jean-Pierre Rampal, organ: Zsuzsa Pertis, premier violin: János Rolla) (1993) [FLAC]/04 Concerto in G minor, Op. 8 No.2, RV 315 "Summer": I. Allegro non molto.flac
Track gain : 1.20 dB Peak : 0.764130 CRC32 hash (test run) : EE367964 CRC32 hash : EE367964 CRC32 hash (skip zero) : 0BBD0AA0 AccurateRip v1 signature : 3E43B730 AccurateRip v2 signature : 34694DE9 ->Accurately ripped (v1, confidence 5/11) Statistics Read error : 0 Jitter error (maybe fixed) : 0 Retry sector count : 0 Damaged sector count : 0
Track 05 Filename : /Users/Ben/Music/Antonio Vivaldi - The Four Seasons (Franz Liszt Chamber Orchestra feat. flute: Jean-Pierre Rampal, organ: Zsuzsa Pertis, premier violin: János Rolla) (1993) [FLAC]/05 Concerto in G minor, Op. 8 No.2, RV 315 "Summer": II. Adagio.flac
Track gain : 4.72 dB Peak : 0.451355 CRC32 hash (test run) : B6301A0C CRC32 hash : B6301A0C CRC32 hash (skip zero) : 3C9DE3A9 AccurateRip v1 signature : 3D6CCB8C AccurateRip v2 signature : 03E334DE ->Accurately ripped (v1, confidence 5/11) Statistics Read error : 0 Jitter error (maybe fixed) : 0 Retry sector count : 0 Damaged sector count : 0
Track 06 Filename : /Users/Ben/Music/Antonio Vivaldi - The Four Seasons (Franz Liszt Chamber Orchestra feat. flute: Jean-Pierre Rampal, organ: Zsuzsa Pertis, premier violin: János Rolla) (1993) [FLAC]/06 Concerto in G minor, Op. 8 No.2, RV 315 "Summer": III. Presto.flac
Track gain : 0.35 dB Peak : 0.718872 CRC32 hash (test run) : DA489330 CRC32 hash : DA489330 CRC32 hash (skip zero) : 04DD05E1 AccurateRip v1 signature : 5D39A67E AccurateRip v2 signature : 806AF30F ->Accurately ripped (v1, confidence 5/11) Statistics Read error : 0 Jitter error (maybe fixed) : 0 Retry sector count : 0 Damaged sector count : 0
Track 07 Filename : /Users/Ben/Music/Antonio Vivaldi - The Four Seasons (Franz Liszt Chamber Orchestra feat. flute: Jean-Pierre Rampal, organ: Zsuzsa Pertis, premier violin: János Rolla) (1993) [FLAC]/07 Concerto in F major, Op. 8 No.3, RV 293 "Autumn": I. Allegro.flac
Track gain : -1.44 dB Peak : 0.974121 CRC32 hash (test run) : 6F764EF6 CRC32 hash : 6F764EF6 CRC32 hash (skip zero) : 63651C2A AccurateRip v1 signature : F3C87EA5 AccurateRip v2 signature : 9ED004B9 ->Accurately ripped (v1, confidence 5/11) Statistics Read error : 0 Jitter error (maybe fixed) : 0 Retry sector count : 0 Damaged sector count : 0
Track 08 Filename : /Users/Ben/Music/Antonio Vivaldi - The Four Seasons (Franz Liszt Chamber Orchestra feat. flute: Jean-Pierre Rampal, organ: Zsuzsa Pertis, premier violin: János Rolla) (1993) [FLAC]/08 Concerto in F major, Op. 8 No.3, RV 293 "Autumn": II. Adagio molto.flac
Track gain : 16.27 dB Peak : 0.091675 CRC32 hash (test run) : 85050EE2 CRC32 hash : 85050EE2 CRC32 hash (skip zero) : 600D096D AccurateRip v1 signature : 14FBCDB5 AccurateRip v2 signature : DF6BAD94 ->Accurately ripped (v1, confidence 5/11) Statistics Read error : 0 Jitter error (maybe fixed) : 0 Retry sector count : 0 Damaged sector count : 0
Track 09 Filename : /Users/Ben/Music/Antonio Vivaldi - The Four Seasons (Franz Liszt Chamber Orchestra feat. flute: Jean-Pierre Rampal, organ: Zsuzsa Pertis, premier violin: János Rolla) (1993) [FLAC]/09 Concerto in F major, Op. 8 No.3, RV 293 "Autumn": III. Allegro.flac
Track gain : -0.28 dB Peak : 0.771790 CRC32 hash (test run) : D08AECB4 CRC32 hash : D08AECB4 CRC32 hash (skip zero) : 47FA87A0 AccurateRip v1 signature : 9089EC04 AccurateRip v2 signature : 927C75BA ->Accurately ripped (v1, confidence 5/11) Statistics Read error : 0 Jitter error (maybe fixed) : 0 Retry sector count : 0 Damaged sector count : 0
Track 10 Filename : /Users/Ben/Music/Antonio Vivaldi - The Four Seasons (Franz Liszt Chamber Orchestra feat. flute: Jean-Pierre Rampal, organ: Zsuzsa Pertis, premier violin: János Rolla) (1993) [FLAC]/10 Concerto in F minor, Op. 8 No.4, RV 297 "Winter": I. Allegro non molto.flac
Track gain : 1.51 dB Peak : 0.626495 CRC32 hash (test run) : 3A69B809 CRC32 hash : 3A69B809 CRC32 hash (skip zero) : 199C004D AccurateRip v1 signature : 10E346C4 AccurateRip v2 signature : 1837337A ->Accurately ripped (v1, confidence 5/11) Statistics Read error : 0 Jitter error (maybe fixed) : 0 Retry sector count : 0 Damaged sector count : 0
Track 11 Filename : /Users/Ben/Music/Antonio Vivaldi - The Four Seasons (Franz Liszt Chamber Orchestra feat. flute: Jean-Pierre Rampal, organ: Zsuzsa Pertis, premier violin: János Rolla) (1993) [FLAC]/11 Concerto in F minor, Op. 8 No.4, RV 297 "Winter": II. Largo.flac
Track gain : 10.35 dB Peak : 0.227814 CRC32 hash (test run) : A2A9ED3E CRC32 hash : A2A9ED3E CRC32 hash (skip zero) : D0DE59E6 AccurateRip v1 signature : 8D7E04D9 AccurateRip v2 signature : 7ADC6F55 ->Accurately ripped (v1, confidence 5/11) Statistics Read error : 0 Jitter error (maybe fixed) : 0 Retry sector count : 0 Damaged sector count : 0
Track 12 Filename : /Users/Ben/Music/Antonio Vivaldi - The Four Seasons (Franz Liszt Chamber Orchestra feat. flute: Jean-Pierre Rampal, organ: Zsuzsa Pertis, premier violin: János Rolla) (1993) [FLAC]/12 Concerto in F minor, Op. 8 No.4, RV 297 "Winter": III. Allegro.flac
Track gain : 2.81 dB Peak : 0.530304 CRC32 hash (test run) : 3709A0ED CRC32 hash : 3709A0ED CRC32 hash (skip zero) : 352724D2 AccurateRip v1 signature : 2CFD283B AccurateRip v2 signature : 70461AFB ->Accurately ripped (v1, confidence 5/11) Statistics Read error : 0 Jitter error (maybe fixed) : 0 Retry sector count : 0 Damaged sector count : 0
Track 13 Filename : /Users/Ben/Music/Antonio Vivaldi - The Four Seasons (Franz Liszt Chamber Orchestra feat. flute: Jean-Pierre Rampal, organ: Zsuzsa Pertis, premier violin: János Rolla) (1993) [FLAC]/13 Concerto for Flute, Strings and Basso continuo in E minor, RV 430 "Darmstadt Concerto": I. Allegro.flac Pre-gap length : 00:06:60
Track gain : 1.96 dB Peak : 0.809662 CRC32 hash (test run) : 65ABA922 CRC32 hash : 65ABA922 CRC32 hash (skip zero) : FB50FB6C AccurateRip v1 signature : 0CC5F55A AccurateRip v2 signature : 1150E269 ->Accurately ripped (v1, confidence 5/11) Statistics Read error : 0 Jitter error (maybe fixed) : 0 Retry sector count : 0 Damaged sector count : 0
Track 14 Filename : /Users/Ben/Music/Antonio Vivaldi - The Four Seasons (Franz Liszt Chamber Orchestra feat. flute: Jean-Pierre Rampal, organ: Zsuzsa Pertis, premier violin: János Rolla) (1993) [FLAC]/14 Concerto for Flute, Strings and Basso continuo in E minor, RV 430 "Darmstadt Concerto": II. Largo.flac
Track gain : 4.85 dB Peak : 0.349548 CRC32 hash (test run) : 84E5D095 CRC32 hash : 84E5D095 CRC32 hash (skip zero) : 0869C698 AccurateRip v1 signature : 21B2E5F2 AccurateRip v2 signature : 11DE669C ->Accurately ripped (v1, confidence 5/11) Statistics Read error : 0 Jitter error (maybe fixed) : 0 Retry sector count : 0 Damaged sector count : 0
Track 15 Filename : /Users/Ben/Music/Antonio Vivaldi - The Four Seasons (Franz Liszt Chamber Orchestra feat. flute: Jean-Pierre Rampal, organ: Zsuzsa Pertis, premier violin: János Rolla) (1993) [FLAC]/15 Concerto for Flute, Strings and Basso continuo in E minor, RV 430 "Darmstadt Concerto": III. Poco Allegro.flac
Track gain : 0.69 dB Peak : 0.720032 CRC32 hash (test run) : 20403068 CRC32 hash : 20403068 CRC32 hash (skip zero) : 70DBDA59 AccurateRip v1 signature : B5B0B144 AccurateRip v2 signature : D3BADDF3 ->Accurately ripped (v1, confidence 5/11) Statistics Read error : 0 Jitter error (maybe fixed) : 0 Retry sector count : 0 Damaged sector count : 0
Track 16 Filename : /Users/Ben/Music/Antonio Vivaldi - The Four Seasons (Franz Liszt Chamber Orchestra feat. flute: Jean-Pierre Rampal, organ: Zsuzsa Pertis, premier violin: János Rolla) (1993) [FLAC]/16 Concerto for Flute, Strings and Basso continuo in D major, RV 783: I. Allegro.flac Pre-gap length : 00:06:40
Track gain : 0.34 dB Peak : 0.847778 CRC32 hash (test run) : 6FF5D948 CRC32 hash : 6FF5D948 CRC32 hash (skip zero) : CCA834D0 AccurateRip v1 signature : 5069EAF6 AccurateRip v2 signature : 5E810972 ->Accurately ripped (v1, confidence 5/11) Statistics Read error : 0 Jitter error (maybe fixed) : 0 Retry sector count : 0 Damaged sector count : 0
Track 17 Filename : /Users/Ben/Music/Antonio Vivaldi - The Four Seasons (Franz Liszt Chamber Orchestra feat. flute: Jean-Pierre Rampal, organ: Zsuzsa Pertis, premier violin: János Rolla) (1993) [FLAC]/17 Concerto for Flute, Strings and Basso continuo in D major, RV 783: II. Largo.flac
Track gain : 7.96 dB Peak : 0.227264 CRC32 hash (test run) : 308934DB CRC32 hash : 308934DB CRC32 hash (skip zero) : C09ED08C AccurateRip v1 signature : 4F727302 AccurateRip v2 signature : EF27C3EC ->Accurately ripped (v1, confidence 5/11) Statistics Read error : 0 Jitter error (maybe fixed) : 0 Retry sector count : 0 Damaged sector count : 0
Track 18 Filename : /Users/Ben/Music/Antonio Vivaldi - The Four Seasons (Franz Liszt Chamber Orchestra feat. flute: Jean-Pierre Rampal, organ: Zsuzsa Pertis, premier violin: János Rolla) (1993) [FLAC]/18 Concerto for Flute, Strings and Basso continuo in D major, RV 783: III. Allegro.flac
Track gain : 2.90 dB Peak : 0.587097 CRC32 hash (test run) : 779FFE2B CRC32 hash : 779FFE2B CRC32 hash (skip zero) : 330AA8C1 AccurateRip v1 signature : DB8960A7 AccurateRip v2 signature : B86992FC ->Accurately ripped (v1, confidence 5/11) Statistics Read error : 0 Jitter error (maybe fixed) : 0 Retry sector count : 0 Damaged sector count : 0
Track 19 Filename : /Users/Ben/Music/Antonio Vivaldi - The Four Seasons (Franz Liszt Chamber Orchestra feat. flute: Jean-Pierre Rampal, organ: Zsuzsa Pertis, premier violin: János Rolla) (1993) [FLAC]/19 Concerto for Flute (Violin), Organ, Strings and Basso continuo in D minor, RV 541: I. Allegro.flac Pre-gap length : 00:05:02
Track gain : 2.27 dB Peak : 0.553436 CRC32 hash (test run) : 47A93F50 CRC32 hash : 47A93F50 CRC32 hash (skip zero) : 463AAE81 AccurateRip v1 signature : 83AE59EC AccurateRip v2 signature : 22A8FE42 ->Accurately ripped (v1, confidence 5/11) Statistics Read error : 0 Jitter error (maybe fixed) : 0 Retry sector count : 0 Damaged sector count : 0
Track 20 Filename : /Users/Ben/Music/Antonio Vivaldi - The Four Seasons (Franz Liszt Chamber Orchestra feat. flute: Jean-Pierre Rampal, organ: Zsuzsa Pertis, premier violin: János Rolla) (1993) [FLAC]/20 Concerto for Flute (Violin), Organ, Strings and Basso continuo in D minor, RV 541: II. Grave.flac
Track gain : 7.10 dB Peak : 0.292511 CRC32 hash (test run) : 45F5A6F2 CRC32 hash : 45F5A6F2 CRC32 hash (skip zero) : 478EBC4D AccurateRip v1 signature : 05078758 AccurateRip v2 signature : FEB4CEFF ->Accurately ripped (v1, confidence 5/11) Statistics Read error : 0 Jitter error (maybe fixed) : 0 Retry sector count : 0 Damaged sector count : 0
Track 21 Filename : /Users/Ben/Music/Antonio Vivaldi - The Four Seasons (Franz Liszt Chamber Orchestra feat. flute: Jean-Pierre Rampal, organ: Zsuzsa Pertis, premier violin: János Rolla) (1993) [FLAC]/21 Concerto for Flute (Violin), Organ, Strings and Basso continuo in D minor, RV 541: III. Allegro.flac
Track gain : -2.11 dB Peak : 0.901764 CRC32 hash (test run) : 5D7F18A8 CRC32 hash : 5D7F18A8 CRC32 hash (skip zero) : 88984FAF AccurateRip v1 signature : 8C24A597 AccurateRip v2 signature : 809DF2C2 ->Accurately ripped (v1, confidence 5/11) Statistics Read error : 0 Jitter error (maybe fixed) : 0 Retry sector count : 0 Damaged sector count : 0
No errors occurred
End of status report

Содержание индексной карты (.CUE)

TITLE "Vivaldi: The Four Seasons"PERFORMER "Jean-Pierre Rampal"REM GENRE "Classical"REM DATE "1993"REM DISCID 0C0E8915REM REPLAYGAIN_ALBUM_GAIN 1.11 dBREM REPLAYGAIN_ALBUM_PEAK 0.974121FILE "01 - Concerto in E major, Op.8 No.1, RV 269 'Spring'- I. Allegro.flac" WAVE TRACK 01 AUDIO TITLE "Concerto in E major, Op.8 No.1, RV 269 'Spring': I. Allegro" REM REPLAYGAIN_TRACK_GAIN -1.29 dB REM REPLAYGAIN_TRACK_PEAK 0.912323 INDEX 01 00:00:00FILE "02 - Concerto in E major, Op.8 No.1, RV 269 'Spring'- II. Largo e pianissimo sempre.flac" WAVE TRACK 02 AUDIO TITLE "Concerto in E major, Op.8 No.1, RV 269 'Spring': II. Largo e pianissimo sempre" REM REPLAYGAIN_TRACK_GAIN 6.99 dB REM REPLAYGAIN_TRACK_PEAK 0.306488 INDEX 01 00:00:00FILE "03 - Concerto in E major, Op.8 No.1, RV 269 'Spring'- III. Allegro.flac" WAVE TRACK 03 AUDIO TITLE "Concerto in E major, Op.8 No.1, RV 269 'Spring': III. Allegro" REM REPLAYGAIN_TRACK_GAIN 1.43 dB REM REPLAYGAIN_TRACK_PEAK 0.751526 INDEX 01 00:00:00FILE "04 - Concerto in G minor, Op.8 No.2, RV 315 'Summer'- I. Allegro non molto.flac" WAVE TRACK 04 AUDIO TITLE "Concerto in G minor, Op.8 No.2, RV 315 'Summer': I. Allegro non molto" REM REPLAYGAIN_TRACK_GAIN 1.20 dB REM REPLAYGAIN_TRACK_PEAK 0.764130 INDEX 01 00:00:00FILE "05 - Concerto in G minor, Op.8 No.2, RV 315 'Summer'- II. Adagio.flac" WAVE TRACK 05 AUDIO TITLE "Concerto in G minor, Op.8 No.2, RV 315 'Summer': II. Adagio" REM REPLAYGAIN_TRACK_GAIN 4.72 dB REM REPLAYGAIN_TRACK_PEAK 0.451355 INDEX 01 00:00:00FILE "06 - Concerto in G minor, Op.8 No.2, RV 315 'Summer'- III. Presto.flac" WAVE TRACK 06 AUDIO TITLE "Concerto in G minor, Op.8 No.2, RV 315 'Summer': III. Presto" REM REPLAYGAIN_TRACK_GAIN 0.35 dB REM REPLAYGAIN_TRACK_PEAK 0.718872 INDEX 01 00:00:00FILE "07 - Concerto in F major, Op.8 No.3, RV 293 'Autumn'- I. Allegro.flac" WAVE TRACK 07 AUDIO TITLE "Concerto in F major, Op.8 No.3, RV 293 'Autumn': I. Allegro" REM REPLAYGAIN_TRACK_GAIN -1.44 dB REM REPLAYGAIN_TRACK_PEAK 0.974121 INDEX 01 00:00:00FILE "08 - Concerto in F major, Op.8 No.3, RV 293 'Autumn'- II. Adagio molto.flac" WAVE TRACK 08 AUDIO TITLE "Concerto in F major, Op.8 No.3, RV 293 'Autumn': II. Adagio molto" REM REPLAYGAIN_TRACK_GAIN 16.27 dB REM REPLAYGAIN_TRACK_PEAK 0.091675 INDEX 01 00:00:00FILE "09 - Concerto in F major, Op.8 No.3, RV 293 'Autumn'- III. Allegro.flac" WAVE TRACK 09 AUDIO TITLE "Concerto in F major, Op.8 No.3, RV 293 'Autumn': III. Allegro" REM REPLAYGAIN_TRACK_GAIN -0.28 dB REM REPLAYGAIN_TRACK_PEAK 0.771790 INDEX 01 00:00:00FILE "10 - Concerto in F minor, Op.8 No.4, RV 297 'Winter'- I. Allegro non molto.flac" WAVE TRACK 10 AUDIO TITLE "10 - Concerto in F minor, Op.8 No.4, RV 297 'Winter': I. Allegro non molto" REM REPLAYGAIN_TRACK_GAIN 1.51 dB REM REPLAYGAIN_TRACK_PEAK 0.626495 INDEX 01 00:00:00FILE "11 - Concerto in F minor, Op.8 No.4, RV 297 'Winter'- II. Largo.flac" WAVE TRACK 11 AUDIO TITLE "Concerto in F minor, Op.8 No.4, RV 297 'Winter': II. Largo" REM REPLAYGAIN_TRACK_GAIN 10.35 dB REM REPLAYGAIN_TRACK_PEAK 0.227814 INDEX 01 00:00:00FILE "12 - Concerto in F minor, Op.8 No.4, RV 297 'Winter'- III. Allegro.flac" WAVE TRACK 12 AUDIO TITLE "Concerto in F minor, Op.8 No.4, RV 297 'Winter': III. Allegro" REM REPLAYGAIN_TRACK_GAIN 2.81 dB REM REPLAYGAIN_TRACK_PEAK 0.530304 INDEX 01 00:00:00 TRACK 13 AUDIO TITLE "Concerto for Flute, Strings and Basso continuo in E minor, RV 430 'Darmstadt Concerto': I. Allegro" REM REPLAYGAIN_TRACK_GAIN 1.96 dB REM REPLAYGAIN_TRACK_PEAK 0.809662 INDEX 00 02:56:13FILE "13 - Concerto for Flute, Strings and Basso continuo in E minor, RV 430 'Darmstadt Concerto'- I. Allegro.flac" WAVE INDEX 01 00:00:00FILE "14 - Concerto for Flute, Strings and Basso continuo in E minor, RV 430 'Darmstadt Concerto'- II. Largo.flac" WAVE TRACK 14 AUDIO TITLE "Concerto for Flute, Strings and Basso continuo in E minor, RV 430 'Darmstadt Concerto': II. Largo" REM REPLAYGAIN_TRACK_GAIN 4.85 dB REM REPLAYGAIN_TRACK_PEAK 0.349548 INDEX 01 00:00:00FILE "15 - Concerto for Flute, Strings and Basso continuo in E minor, RV 430 'Darmstadt Concerto'- III. Poco Allegro.flac" WAVE TRACK 15 AUDIO TITLE "15 - Concerto for Flute, Strings and Basso continuo in E minor, RV 430 'Darmstadt Concerto': III. Poco Allegro" REM REPLAYGAIN_TRACK_GAIN 0.69 dB REM REPLAYGAIN_TRACK_PEAK 0.720032 INDEX 01 00:00:00 TRACK 16 AUDIO TITLE "16 - Concerto for Flute, Strings and Basso continuo in D major, RV 783: I. Allegro" REM REPLAYGAIN_TRACK_GAIN 0.34 dB REM REPLAYGAIN_TRACK_PEAK 0.847778 INDEX 00 02:42:45FILE "16 - Concerto for Flute, Strings and Basso continuo in D major, RV 783- I. Allegro.flac" WAVE INDEX 01 00:00:00FILE "17 - Concerto for Flute, Strings and Basso continuo in D major, RV 783- II. Largo.flac" WAVE TRACK 17 AUDIO TITLE "Concerto for Flute, Strings and Basso continuo in D major, RV 783: II. Largo" REM REPLAYGAIN_TRACK_GAIN 7.96 dB REM REPLAYGAIN_TRACK_PEAK 0.227264 INDEX 01 00:00:00FILE "18 - Concerto for Flute, Strings and Basso continuo in D major, RV 783- III. Allegro.flac" WAVE TRACK 18 AUDIO TITLE "Concerto for Flute, Strings and Basso continuo in D major, RV 783: III. Allegro" REM REPLAYGAIN_TRACK_GAIN 2.90 dB REM REPLAYGAIN_TRACK_PEAK 0.587097 INDEX 01 00:00:00 TRACK 19 AUDIO TITLE "Concerto for Flute (Violin), Organ, Strings and Basso continuo in D minor, RV 541: I. Allegro" REM REPLAYGAIN_TRACK_GAIN 2.27 dB REM REPLAYGAIN_TRACK_PEAK 0.553436 INDEX 00 03:20:08FILE "19 - Concerto for Flute (Violin), Organ, Strings and Basso continuo in D minor, RV 541- I. Allegro.flac" WAVE INDEX 01 00:00:00FILE "20 - Concerto for Flute (Violin), Organ, Strings and Basso continuo in D minor, RV 541- II. Grave.flac" WAVE TRACK 20 AUDIO TITLE "Concerto for Flute (Violin), Organ, Strings and Basso continuo in D minor, RV 541: II. Grave" REM REPLAYGAIN_TRACK_GAIN 7.10 dB REM REPLAYGAIN_TRACK_PEAK 0.292511 INDEX 01 00:00:00FILE "21 - Concerto for Flute (Violin), Organ, Strings and Basso continuo in D minor, RV 541- III. Allegro.flac" WAVE TRACK 21 AUDIO TITLE "Concerto for Flute (Violin), Organ, Strings and Basso continuo in D minor, RV 541: III. Allegro" REM REPLAYGAIN_TRACK_GAIN -2.11 dB REM REPLAYGAIN_TRACK_PEAK 0.901764 INDEX 01 00:00:00

Отчет CUETools

[CUETools log; Date: 18.12.2013 0:19:49; Version: 2.1.4][CTDB TOCID: lJJokvUUWqWhgSF9y6g12V.x82E-] found.Track | CTDB Status 1 | (4/4) Accurately ripped 2 | (4/4) Accurately ripped 3 | (4/4) Accurately ripped 4 | (4/4) Accurately ripped 5 | (4/4) Accurately ripped 6 | (4/4) Accurately ripped 7 | (4/4) Accurately ripped 8 | (4/4) Accurately ripped 9 | (4/4) Accurately ripped 10 | (4/4) Accurately ripped 11 | (3/4) Accurately ripped, or (1/4) differs in 3 samples @01:56:47 12 | (4/4) Accurately ripped 13 | (4/4) Accurately ripped 14 | (4/4) Accurately ripped 15 | (3/4) Accurately ripped, or (1/4) differs in 7 samples @02:42:42-02:42:43 16 | (4/4) Accurately ripped 17 | (4/4) Accurately ripped 18 | (3/4) Accurately ripped, or (1/4) differs in 2 samples @03:20:05-03:20:06 19 | (4/4) Accurately ripped 20 | (4/4) Accurately ripped 21 | (4/4) Accurately ripped[AccurateRip ID: 00304c56-02df0f66-0c0e8915] found.Track [ CRC | V2 ] Status 01 [94021e11|16d7ee96] (05+00/13) Accurately ripped 02 [72c09018|af619907] (05+00/13) Accurately ripped 03 [78f83435|af6e7bf7] (05+00/13) Accurately ripped 04 [3e43b730|34694de9] (05+00/13) Accurately ripped 05 [3d6ccb8c|03e334de] (05+00/13) Accurately ripped 06 [5d39a67e|806af30f] (05+00/13) Accurately ripped 07 [f3c87ea5|9ed004b9] (05+00/13) Accurately ripped 08 [14fbcdb5|df6bad94] (05+00/13) Accurately ripped 09 [9089ec04|927c75ba] (05+00/13) Accurately ripped 10 [10e346c4|1837337a] (05+00/13) Accurately ripped 11 [8d7e04d9|7adc6f55] (05+00/13) Accurately ripped 12 [2cfd283b|70461afb] (05+00/13) Accurately ripped 13 [0cc5f55a|1150e269] (05+00/13) Accurately ripped 14 [21b2e5f2|11de669c] (05+00/13) Accurately ripped 15 [b5b0b144|d3baddf3] (05+00/13) Accurately ripped 16 [5069eaf6|5e810972] (05+00/13) Accurately ripped 17 [4f727302|ef27c3ec] (05+00/13) Accurately ripped 18 [db8960a7|b86992fc] (05+00/13) Accurately ripped 19 [83ae59ec|22a8fe42] (05+00/13) Accurately ripped 20 [05078758|feb4ceff] (05+00/13) Accurately ripped 21 [8c24a597|809df2c2] (05+00/13) Accurately rippedOffsetted by -405: 01 [6b39b2bf] (06/13) Accurately ripped 02 [e131020e] (06/13) Accurately ripped 03 [85cf8ef1] (06/13) Accurately ripped 04 [d9a2c1b9] (06/13) Accurately ripped 05 [5d48b6ca] (06/13) Accurately ripped 06 [e983e0d9] (06/13) Accurately ripped 07 [4a65db37] (06/13) Accurately ripped 08 [461d9e3e] (06/13) Accurately ripped 09 [6ce1c663] (06/13) Accurately ripped 10 [ea0a840a] (06/13) Accurately ripped 11 [19c10f96] (06/13) Accurately ripped 12 [da3d03ba] (06/13) Accurately ripped 13 [d617704f] (06/13) Accurately ripped 14 [fc2f0546] (06/13) Accurately ripped 15 [5b7fa79e] (06/13) Accurately ripped 16 [ae7e93e9] (06/13) Accurately ripped 17 [d98d8f68] (06/13) Accurately ripped 18 [a2116afb] (06/13) Accurately ripped 19 [6e9a414c] (06/13) Accurately ripped 20 [79a30415] (06/13) Accurately ripped 21 [05dd763d] (06/13) Accurately rippedOffsetted by -1338: 01 [c3c244bb] (00/13) No match (V2 was not tested) 02 [b30057fa] (00/13) No match (V2 was not tested) 03 [9d79a4e1] (00/13) No match (V2 was not tested) 04 [c4523ea3] (00/13) No match (V2 was not tested) 05 [ef828e27] (00/13) No match (V2 was not tested) 06 [5cf81969] (00/13) No match (V2 was not tested) 07 [4fc3a2a0] (00/13) No match (V2 was not tested) 08 [e5bfe69d] (00/13) No match (V2 was not tested) 09 [325239eb] (00/13) No match (V2 was not tested) 10 [c5cb7def] (00/13) No match (V2 was not tested) 11 [089d8118] (00/13) No match (V2 was not tested) 12 [f0698e42] (00/13) No match (V2 was not tested) 13 [871f59e6] (00/13) No match (V2 was not tested) 14 [8d99f010] (00/13) No match (V2 was not tested) 15 [195b449c] (00/13) No match (V2 was not tested) 16 [085c7e85] (00/13) No match (V2 was not tested) 17 [52533b98] (00/13) No match (V2 was not tested) 18 [a025302c] (00/13) No match (V2 was not tested) 19 [bfe3c5ae] (00/13) No match (V2 was not tested) 20 [7ab05fe9] (00/13) No match (V2 was not tested) 21 [2467a862] (00/13) No match (V2 was not tested)Offsetted by -674: 01 [4481c799] (00/13) No match (V2 was not tested) 02 [45feb7d3] (00/13) No match (V2 was not tested) 03 [fe784fed] (00/13) No match (V2 was not tested) 04 [a929fde9] (00/13) No match (V2 was not tested) 05 [3c7efbcb] (00/13) No match (V2 was not tested) 06 [65dd31e1] (00/13) No match (V2 was not tested) 07 [5df06ac3] (00/13) No match (V2 was not tested) 08 [3b3a52fa] (00/13) No match (V2 was not tested) 09 [d5179093] (00/13) No match (V2 was not tested) 10 [6322829e] (00/13) No match (V2 was not tested) 11 [113e2d53] (00/13) No match (V2 was not tested) 12 [6333964f] (00/13) No match (V2 was not tested) 13 [e28b9d4c] (00/13) No match (V2 was not tested) 14 [d9618cec] (00/13) No match (V2 was not tested) 15 [d6cdf7e2] (00/13) No match (V2 was not tested) 16 [3bddccc1] (00/13) No match (V2 was not tested) 17 [3157287b] (00/13) No match (V2 was not tested) 18 [d3789895] (00/13) No match (V2 was not tested) 19 [112c0a08] (00/13) No match (V2 was not tested) 20 [fd8eb781] (00/13) No match (V2 was not tested) 21 [77081414] (00/13) No match (V2 was not tested)
Track Peak [ CRC32 ] [W/O NULL] -- 97,4 [66013FA4] [F96EE32E] 01 91,2 [3ECA0FBB] [AF3AD374] 02 30,6 [CC974631] [CABFEB7C] 03 75,1 [55EF0D8B] [8D81B577] 04 76,4 [EE367964] [0BBD0AA0] 05 45,1 [B6301A0C] [3C9DE3A9] 06 71,8 [DA489330] [04DD05E1] 07 97,4 [6F764EF6] [63651C2A] 08 9,1 [85050EE2] [600D096D] 09 77,1 [D08AECB4] [47FA87A0] 10 62,6 [3A69B809] [199C004D] 11 22,7 [A2A9ED3E] [D0DE59E6] 12 53,0 [3709A0ED] [352724D2] 13 80,9 [65ABA922] [FB50FB6C] 14 34,9 [84E5D095] [0869C698] 15 72,0 [20403068] [70DBDA59] 16 84,7 [6FF5D948] [CCA834D0] 17 22,7 [308934DB] [C09ED08C] 18 58,7 [779FFE2B] [330AA8C1] 19 55,3 [47A93F50] [463AAE81] 20 29,2 [45F5A6F2] [478EBC4D] 21 90,1 [5D7F18A8] [88984FAF]

Об альбоме (сборнике)

Jean-Pierre Rampal performs his own flute transcriptions of Vivaldi's Four Seasons (originally for violin), accompanied by Janos Rolla and Franz Liszt Chamber Orchestra.
[teatrix.ru].t9989.torrent 
Торрент: Зарегистрирован [ 2015-10-25 20:37 ] · 01F238F6064E5ABD7EA6B24F7F1AC77DEE72F03D

Скачать .torrent

Скачать

14 KB

Статус: проверено
Скачан: 0 раз
Размер: 283 MB
terms.php



Быстрый ответ

Имя:

      
Для отправки сообщений необходимо включить JavaScript
Показать сообщения:    

Текущее время: 04-Дек 09:08

Часовой пояс: UTC + 3


Вы можете начинать темы
Вы можете отвечать на сообщения
Вы не можете редактировать свои сообщения
Вы не можете удалять свои сообщения
Вы не можете голосовать в опросах
Вы не можете прикреплять файлы к сообщениям
Вы можете скачивать файлы