(Classical) Edward Elgar, Elliott Carter - Cello Concertos - Alisa Weilerstein, Staatskapelle Berlin, Daniel Barenboim - 2012, FLAC (image+.cue) lossless


Статистика раздачи [Обновить пиров]
Размер:  279 MB   |    Зарегистрирован:  1 год 1 месяц   |    Скачан:  1 раз

Полного источника не было: 1 месяц 14 дней

Личеров:  1  [  0 KB/s  ]   Подробная статистика пиров
 
   
 
 
 

[Цитировать]

Edward Elgar, Elliott Carter - Cello Concertos - Alisa Weilerstein, Staatskapelle Berlin, Daniel Barenboim
Жанр: Classical
Год издания диска: 2012
Издатель (лейбл): Decca
Номер по каталогу: 478 2735
Дата записи: 2012
Аудиокодек: FLAC
Тип рипа: image+.cue
Битрейт аудио: lossless
Продолжительность: 62:27
Источник: собственный рип
Наличие сканов в содержимом раздачи: да
Треклист:
Edward Elgar (1857-1934)
[1]-[4] Concerto for cello and orchestra in E minor, Op.85
Elliott Carter (1908-2012)
[5]-[11] Cello Concerto
Bonus
Max Bruch (1838-1920)
[12] Kol Nidrei, Op.47
Исполнители:
Alisa Weilerstein cello
Staatskapelle Berlin
Daniel Barenboim

Лог создания рипа

Exact Audio Copy V1.0 beta 3 from 29. August 2011
EAC extraction logfile from 6. December 2013, 16:33
Alisa Weilerstein, Staatskapelle Berlin, Daniel Barenboim / Elgar, Carter - Cello Concertos
Used drive : HL-DT-STDVDRRW GWA-4164B Adapter: 5 ID: 0
Read mode : SecureUtilize accurate stream : YesDefeat audio cache : YesMake use of C2 pointers : No
Read offset correction : 102Overread into Lead-In and Lead-Out : NoFill up missing offset samples with silence : YesDelete leading and trailing silent blocks : NoNull samples used in CRC calculations : YesUsed interface : Native Win32 interface for Win NT & 2000
Used output format : User Defined EncoderSelected bitrate : 896 kBit/sQuality : HighAdd ID3 tag : NoCommand line compressor : C:\Program Files\Exact Audio Copy\FLAC\FLAC.EXEAdditional command line options : -V -8 %source%
TOC of the extracted CD
Track | Start | Length | Start sector | End sector --------------------------------------------------------- 1 | 0:00.00 | 7:47.70 | 0 | 35094 2 | 7:47.70 | 4:26.15 | 35095 | 55059 3 | 12:14.10 | 5:07.56 | 55060 | 78140 4 | 17:21.66 | 11:55.04 | 78141 | 131769 5 | 29:16.70 | 1:40.29 | 131770 | 139298 6 | 30:57.24 | 2:43.47 | 139299 | 151570 7 | 33:40.71 | 3:11.39 | 151571 | 165934 8 | 36:52.35 | 3:39.65 | 165935 | 182424 9 | 40:32.25 | 3:04.09 | 182425 | 196233 10 | 43:36.34 | 4:11.03 | 196234 | 215061 11 | 47:47.37 | 3:48.21 | 215062 | 232182 12 | 51:35.58 | 10:49.15 | 232183 | 280872
Range status and errors
Selected range
Filename D:\temp\Music\Elgar, Carter - Cello Concertos\Elgar, Carter - Cello Concertos.wav
Peak level 100.0 % Extraction speed 2.8 X Range quality 99.9 % Test CRC 22B16B29 Copy CRC 22B16B29 Copy OK
No errors occurred
AccurateRip summary
Track 1 accurately ripped (confidence 25) [7D7703E3] (AR v2)Track 2 accurately ripped (confidence 25) [071AF8AC] (AR v2)Track 3 accurately ripped (confidence 25) [EE10230E] (AR v2)Track 4 accurately ripped (confidence 25) [AD48901F] (AR v2)Track 5 accurately ripped (confidence 25) [1A6ACF3C] (AR v2)Track 6 accurately ripped (confidence 24) [4BFA4A33] (AR v2)Track 7 accurately ripped (confidence 24) [6CFC8915] (AR v2)Track 8 accurately ripped (confidence 24) [5ED16D64] (AR v2)Track 9 accurately ripped (confidence 24) [00406EB5] (AR v2)Track 10 accurately ripped (confidence 24) [ADBEAF4B] (AR v2)Track 11 accurately ripped (confidence 24) [41CC8BE8] (AR v2)Track 12 accurately ripped (confidence 24) [30E15DA7] (AR v2)
All tracks accurately ripped
End of status report
==== Log checksum 0A491F9B50B4E491F0DCCDE8B730909730F1213C8053FFC937642A92E4606ADB ====
[teatrix.ru].t9990.torrent 
Торрент: Зарегистрирован [ 2015-10-25 20:37 ] · 51B24A4278C7C6F6FAEB31020AB70378555D8452

Скачать .torrent

Скачать

24 KB

Статус: проверено
Скачан: 1 раз
Размер: 279 MB
terms.php



Быстрый ответ

Имя:

      
Для отправки сообщений необходимо включить JavaScript
Показать сообщения:    

Текущее время: 08-Дек 17:24

Часовой пояс: UTC + 3


Вы можете начинать темы
Вы можете отвечать на сообщения
Вы не можете редактировать свои сообщения
Вы не можете удалять свои сообщения
Вы не можете голосовать в опросах
Вы не можете прикреплять файлы к сообщениям
Вы можете скачивать файлы