(Classical / Flute Concerto) Antonio Vivaldi - Concerti per Flauto: Op. 10 (RV 428, 433, 434, 435, 437, 439) • RV 429 • RV 440 (Emmanuel Pahud, Australian Chamber Orchestra, Richard Tognetti, 2005) - 2006, FLAC (tracks+.cue) lossless


Статистика раздачи [Обновить пиров]
Размер:  291 MB   |    Зарегистрирован:  1 год 1 месяц   |    Скачан:  0 раз

Полного источника не было: Никогда

 
   
 
 
 

[Цитировать]

Antonio Vivaldi | Антонио Вивальди
(1678–1741)



Concerti per Flauto | Концерты для флейты


Emmanuel Pahud flute
Australian Chamber Orchestra
Richard Tognetti conductor


Жанр: Classical / Flute Concerto
Дата и место записи: Eugene Goossens Hall, Sydney, Australia, 16–18.VII.2005
Формат записи: DDD, Stereo
Год издания диска: 2006
Издатель (лейбл): EMI
Номер по каталогу: 0946 3 47212 2 6
Аудиокодек: FLAC
Тип рипа: tracks+.cue
Битрейт аудио: lossless
Продолжительность: 1:05:49
Наличие сканов в содержимом раздачи: да
Источник: LzTr
Релизёр: Alphabool


-
Tracklist / Треклист
Concerto in Fa maggiore «La tempesta di mare», RV 433 (Op. 10 n° 1) - 6:22
I. Allegro - 2:29
  • II. Largo - 1:55
  • III. Presto - 1:57Concerto in Sol minore «La notte», RV 439 (Op. 10 n° 2) - 8:59
    I. Largo - 1:42
  • II. Fantasmi: Presto - 0:47
  • III. Largo - 1:13
  • IV. Presto - 1:08
  • V. Il sonno: Largo - 2:02
  • VI. Allegro - 2:07Concerto in Re maggiore «Il gardellino», RV 428 (Op. 10 n° 3) - 9:20
    I. Allegro - 3:50
  • II. Cantabile - 2:34
  • III. Allegro - 2:55Concerto in Sol maggiore, RV 435 (Op. 10 n° 4) - 7:11
    I. Allegro - 2:43
  • II. Largo - 2:12
  • III. Allegro - 2:16Concerto in Fa maggiore, RV 434 (Op. 10 n° 5) - 8:50
    I. Allegro non molto - 3:43
  • II. Largo e cantabile - 3:25
  • III. Allegro - 1:42Concerto in Sol maggiore, RV 437 (Op. 10 n° 6) - 8:14
    I. Allegro - 4:08
  • II. Largo - 1:40
  • III. Allegro - 2:25Concerto in La minore, RV 440 - 8:59
    I. Allegro non molto - 3:41
  • II. Larghetto - 2:27
  • III. Allegro - 2:52Concerto in Re maggiore, RV 429 - 7:55
    I. Allegro - 2:28
  • II. Andante - 1:49
  • III. Allegro - 3:37
    -

    EAC log / Отчёт EAC

    Exact Audio Copy V0.99 prebeta 5 from 4. May 2009
    EAC extraction logfile from 29. August 2010, 0:27
    Antonio Vivaldi / Flute Concertos (Emmanuel Pahud)
    Used drive : ASUS DRW-1814BLT Adapter: 4 ID: 1
    Read mode : SecureUtilize accurate stream : YesDefeat audio cache : YesMake use of C2 pointers : No
    Read offset correction : 6Overread into Lead-In and Lead-Out : NoFill up missing offset samples with silence : YesDelete leading and trailing silent blocks : NoNull samples used in CRC calculations : YesUsed interface : Native Win32 interface for Win NT & 2000Gap handling : Appended to previous track
    Used output format : User Defined EncoderSelected bitrate : 768 kBit/sQuality : HighAdd ID3 tag : NoCommand line compressor : C:\Program Files (x86)\Exact Audio Copy\FLAC\FLAC.EXEAdditional command line options : -8 -V -T "ARTIST=%a" -T "TITLE=%t" -T "ALBUM=%g" -T "DATE=%y" -T "TRACKNUMBER=%n" -T "GENRE=%m" -T "COMMENT=%e" %s -o %d
    TOC of the extracted CD
    Track | Start | Length | Start sector | End sector --------------------------------------------------------- 1 | 0:00.00 | 2:29.11 | 0 | 11185 2 | 2:29.11 | 1:55.25 | 11186 | 19835 3 | 4:24.36 | 1:57.36 | 19836 | 28646 4 | 6:21.72 | 1:42.15 | 28647 | 36311 5 | 8:04.12 | 0:46.50 | 36312 | 39811 6 | 8:50.62 | 1:13.06 | 39812 | 45292 7 | 10:03.68 | 1:07.69 | 45293 | 50386 8 | 11:11.62 | 2:02.36 | 50387 | 59572 9 | 13:14.23 | 2:06.42 | 59573 | 69064 10 | 15:20.65 | 3:50.01 | 69065 | 86315 11 | 19:10.66 | 2:34.32 | 86316 | 97897 12 | 21:45.23 | 2:55.36 | 97898 | 111058 13 | 24:40.59 | 2:43.02 | 111059 | 123285 14 | 27:23.61 | 2:11.48 | 123286 | 133158 15 | 29:35.34 | 2:16.18 | 133159 | 143376 16 | 31:51.52 | 3:43.00 | 143377 | 160101 17 | 35:34.52 | 3:25.32 | 160102 | 175508 18 | 39:00.09 | 1:41.62 | 175509 | 183145 19 | 40:41.71 | 4:07.68 | 183146 | 201738 20 | 44:49.64 | 1:40.32 | 201739 | 209270 21 | 46:30.21 | 2:25.27 | 209271 | 220172 22 | 48:55.48 | 3:40.64 | 220173 | 236736 23 | 52:36.37 | 2:26.41 | 236737 | 247727 24 | 55:03.03 | 2:51.38 | 247728 | 260590 25 | 57:54.41 | 2:28.22 | 260591 | 271712 26 | 60:22.63 | 1:49.09 | 271713 | 279896 27 | 62:11.72 | 3:37.34 | 279897 | 296205
    Track 1
    Filename O:\EAC\FLAC\Antonio Vivaldi - 2006 - Flute Concertos (Emmanuel Pahud)\01 - Vivaldi Concerto Op.10 No.1 in F RV 433 'La tempesta di mare' - I. Allegro.wav
    Pre-gap length 0:00:02.00
    Peak level 84.3 % Track quality 100.0 % Test CRC 2D6E9672 Copy CRC 2D6E9672 Accurately ripped (confidence 13) [88B37E2A] Copy OK
    Track 2
    Filename O:\EAC\FLAC\Antonio Vivaldi - 2006 - Flute Concertos (Emmanuel Pahud)\02 - Vivaldi Concerto Op.10 No.1 in F RV 433 'La tempesta di mare' - II. Largo.wav
    Peak level 45.9 % Track quality 100.0 % Test CRC B64F3B14 Copy CRC B64F3B14 Accurately ripped (confidence 15) [A1FB888C] Copy OK
    Track 3
    Filename O:\EAC\FLAC\Antonio Vivaldi - 2006 - Flute Concertos (Emmanuel Pahud)\03 - Vivaldi Concerto Op.10 No.1 in F RV 433 'La tempesta di mare' - III. Presto.wav
    Pre-gap length 0:00:00.40
    Peak level 71.1 % Track quality 100.0 % Test CRC EE55EF2C Copy CRC EE55EF2C Accurately ripped (confidence 15) [AF8C3FD1] Copy OK
    Track 4
    Filename O:\EAC\FLAC\Antonio Vivaldi - 2006 - Flute Concertos (Emmanuel Pahud)\04 - Vivaldi Concerto Op.10 No.2 in G minor RV 439 'La notte' - I. Largo.wav
    Pre-gap length 0:00:04.24
    Peak level 58.2 % Track quality 100.0 % Test CRC 70BFF6DF Copy CRC 70BFF6DF Accurately ripped (confidence 15) [60F819AE] Copy OK
    Track 5
    Filename O:\EAC\FLAC\Antonio Vivaldi - 2006 - Flute Concertos (Emmanuel Pahud)\05 - Vivaldi Concerto Op.10 No.2 in G minor RV 439 'La notte' - II. Fantasmi. Presto.wav
    Peak level 87.1 % Track quality 100.0 % Test CRC DD5C23CD Copy CRC DD5C23CD Accurately ripped (confidence 15) [02990ADA] Copy OK
    Track 6
    Filename O:\EAC\FLAC\Antonio Vivaldi - 2006 - Flute Concertos (Emmanuel Pahud)\06 - Vivaldi Concerto Op.10 No.2 in G minor RV 439 'La notte' - III. Largo.wav
    Peak level 27.4 % Track quality 100.0 % Test CRC 5E42D655 Copy CRC 5E42D655 Accurately ripped (confidence 15) [D08514B8] Copy OK
    Track 7
    Filename O:\EAC\FLAC\Antonio Vivaldi - 2006 - Flute Concertos (Emmanuel Pahud)\07 - Vivaldi Concerto Op.10 No.2 in G minor RV 439 'La notte' - IV. Presto.wav
    Peak level 80.8 % Track quality 100.0 % Test CRC 0F1B5807 Copy CRC 0F1B5807 Accurately ripped (confidence 15) [BC6E50C0] Copy OK
    Track 8
    Filename O:\EAC\FLAC\Antonio Vivaldi - 2006 - Flute Concertos (Emmanuel Pahud)\08 - Vivaldi Concerto Op.10 No.2 in G minor RV 439 'La notte' - V. Il sonno. Largo.wav
    Pre-gap length 0:00:00.73
    Peak level 9.6 % Track quality 100.0 % Test CRC 9237C196 Copy CRC 9237C196 Accurately ripped (confidence 15) [E622DE7F] Copy OK
    Track 9
    Filename O:\EAC\FLAC\Antonio Vivaldi - 2006 - Flute Concertos (Emmanuel Pahud)\09 - Vivaldi Concerto Op.10 No.2 in G minor RV 439 'La notte' - VI. Allegro.wav
    Peak level 73.4 % Track quality 100.0 % Test CRC 17A236C0 Copy CRC 17A236C0 Accurately ripped (confidence 15) [01FF7ABC] Copy OK
    Track 10
    Filename O:\EAC\FLAC\Antonio Vivaldi - 2006 - Flute Concertos (Emmanuel Pahud)\10 - Vivaldi Concerto Op.10 No.3 in D RV 428 'Il gardellino' - I. Allegro.wav
    Pre-gap length 0:00:05.31
    Peak level 78.0 % Track quality 100.0 % Test CRC 85E3606C Copy CRC 85E3606C Accurately ripped (confidence 15) [C91D13DA] Copy OK
    Track 11
    Filename O:\EAC\FLAC\Antonio Vivaldi - 2006 - Flute Concertos (Emmanuel Pahud)\11 - Vivaldi Concerto Op.10 No.3 in D RV 428 'Il gardellino' - II. Cantabile.wav
    Pre-gap length 0:00:01.65
    Peak level 41.9 % Track quality 100.0 % Test CRC 85AB9C58 Copy CRC 85AB9C58 Accurately ripped (confidence 15) [B261D20E] Copy OK
    Track 12
    Filename O:\EAC\FLAC\Antonio Vivaldi - 2006 - Flute Concertos (Emmanuel Pahud)\12 - Vivaldi Concerto Op.10 No.3 in D RV 428 'Il gardellino' - III. Allegro.wav
    Pre-gap length 0:00:01.06
    Peak level 82.6 % Track quality 100.0 % Test CRC EE89917F Copy CRC EE89917F Accurately ripped (confidence 15) [3162FE86] Copy OK
    Track 13
    Filename O:\EAC\FLAC\Antonio Vivaldi - 2006 - Flute Concertos (Emmanuel Pahud)\13 - Vivaldi Concerto Op.10 No.4 in G RV 435 - I. Allegro.wav
    Pre-gap length 0:00:06.46
    Peak level 58.9 % Track quality 99.9 % Test CRC D12B2C08 Copy CRC D12B2C08 Accurately ripped (confidence 15) [DA5142C7] Copy OK
    Track 14
    Filename O:\EAC\FLAC\Antonio Vivaldi - 2006 - Flute Concertos (Emmanuel Pahud)\14 - Vivaldi Concerto Op.10 No.4 in G RV 435 - II. Largo.wav
    Pre-gap length 0:00:01.60
    Peak level 43.4 % Track quality 100.0 % Test CRC 2679EA21 Copy CRC 2679EA21 Accurately ripped (confidence 15) [09CEA449] Copy OK
    Track 15
    Filename O:\EAC\FLAC\Antonio Vivaldi - 2006 - Flute Concertos (Emmanuel Pahud)\15 - Vivaldi Concerto Op.10 No.4 in G RV 435 - III. Allegro.wav
    Pre-gap length 0:00:00.54
    Peak level 77.8 % Track quality 100.0 % Test CRC 0625E519 Copy CRC 0625E519 Accurately ripped (confidence 15) [45DB7D1D] Copy OK
    Track 16
    Filename O:\EAC\FLAC\Antonio Vivaldi - 2006 - Flute Concertos (Emmanuel Pahud)\16 - Vivaldi Concerto Op.10 No.5 in F RV 434 - I. Allegro non molto.wav
    Pre-gap length 0:00:04.31
    Peak level 51.3 % Track quality 100.0 % Test CRC 36B7B0C6 Copy CRC 36B7B0C6 Accurately ripped (confidence 15) [3D5CE73D] Copy OK
    Track 17
    Filename O:\EAC\FLAC\Antonio Vivaldi - 2006 - Flute Concertos (Emmanuel Pahud)\17 - Vivaldi Concerto Op.10 No.5 in F RV 434 - II. Largo e cantabile.wav
    Pre-gap length 0:00:01.73
    Peak level 44.7 % Track quality 100.0 % Test CRC C27E6EB8 Copy CRC C27E6EB8 Accurately ripped (confidence 15) [EA0504D1] Copy OK
    Track 18
    Filename O:\EAC\FLAC\Antonio Vivaldi - 2006 - Flute Concertos (Emmanuel Pahud)\18 - Vivaldi Concerto Op.10 No.5 in F RV 434 - III. Allegro.wav
    Pre-gap length 0:00:00.39
    Peak level 68.0 % Track quality 100.0 % Test CRC 9B8E63A8 Copy CRC 9B8E63A8 Accurately ripped (confidence 15) [3FD894BD] Copy OK
    Track 19
    Filename O:\EAC\FLAC\Antonio Vivaldi - 2006 - Flute Concertos (Emmanuel Pahud)\19 - Vivaldi Concerto Op.10 No.6 in G RV 437 - I. Allegro.wav
    Pre-gap length 0:00:03.62
    Peak level 58.4 % Track quality 100.0 % Test CRC 97F957C7 Copy CRC 97F957C7 Accurately ripped (confidence 15) [444DAFAE] Copy OK
    Track 20
    Filename O:\EAC\FLAC\Antonio Vivaldi - 2006 - Flute Concertos (Emmanuel Pahud)\20 - Vivaldi Concerto Op.10 No.6 in G RV 437 - II. Largo.wav
    Pre-gap length 0:00:01.37
    Peak level 36.2 % Track quality 100.0 % Test CRC FF31C759 Copy CRC FF31C759 Accurately ripped (confidence 15) [9F37CA8C] Copy OK
    Track 21
    Filename O:\EAC\FLAC\Antonio Vivaldi - 2006 - Flute Concertos (Emmanuel Pahud)\21 - Vivaldi Concerto Op.10 No.6 in G RV 437 - III. Allegro.wav
    Peak level 69.3 % Track quality 100.0 % Test CRC 6722D2D0 Copy CRC 6722D2D0 Accurately ripped (confidence 14) [6B1E9862] Copy OK
    Track 22
    Filename O:\EAC\FLAC\Antonio Vivaldi - 2006 - Flute Concertos (Emmanuel Pahud)\22 - Vivaldi Concerto in A minor RV 440 - I. Allegro non molto.wav
    Pre-gap length 0:00:04.06
    Peak level 74.4 % Track quality 100.0 % Test CRC 34FF060E Copy CRC 34FF060E Accurately ripped (confidence 14) [48FD2C1B] Copy OK
    Track 23
    Filename O:\EAC\FLAC\Antonio Vivaldi - 2006 - Flute Concertos (Emmanuel Pahud)\23 - Vivaldi Concerto in A minor RV 440 - II. Larghetto.wav
    Pre-gap length 0:00:00.71
    Peak level 29.6 % Track quality 100.0 % Test CRC 9ADC6503 Copy CRC 9ADC6503 Accurately ripped (confidence 13) [DB317EC2] Copy OK
    Track 24
    Filename O:\EAC\FLAC\Antonio Vivaldi - 2006 - Flute Concertos (Emmanuel Pahud)\24 - Vivaldi Concerto in A minor RV 440 - III. Allegro.wav
    Pre-gap length 0:00:01.22
    Peak level 71.3 % Track quality 100.0 % Test CRC F63887CB Copy CRC F63887CB Accurately ripped (confidence 13) [4CBA0E01] Copy OK
    Track 25
    Filename O:\EAC\FLAC\Antonio Vivaldi - 2006 - Flute Concertos (Emmanuel Pahud)\25 - Vivaldi Concerto in D RV 429 - I. Allegro.wav
    Pre-gap length 0:00:03.28
    Peak level 75.0 % Track quality 100.0 % Test CRC E205FCBA Copy CRC E205FCBA Accurately ripped (confidence 13) [58C80520] Copy OK
    Track 26
    Filename O:\EAC\FLAC\Antonio Vivaldi - 2006 - Flute Concertos (Emmanuel Pahud)\26 - Vivaldi Concerto in D RV 429 - II. Andante.wav
    Pre-gap length 0:00:00.43
    Peak level 41.2 % Track quality 100.0 % Test CRC 9237E26D Copy CRC 9237E26D Accurately ripped (confidence 13) [4CA1A8E5] Copy OK
    Track 27
    Filename O:\EAC\FLAC\Antonio Vivaldi - 2006 - Flute Concertos (Emmanuel Pahud)\27 - Vivaldi Concerto in D RV 429 - III. Allegro.wav
    Peak level 55.5 % Track quality 100.0 % Test CRC 000A6F4C Copy CRC 000A6F4C Accurately ripped (confidence 11) [A2C34B51] Copy OK
    All tracks accurately ripped
    No errors occurred
    End of status report

    auCDtect Task Manager log / Отчёт auCDtect Task Manager

    -----------------------
    DON'T MODIFY THIS FILE
    -----------------------
    PERFORMER: auCDtect Task Manager, ver. 1.5.1RC3 build 1.5.1.4Copyright (c) 2008-2010 y-soft. All rights reserved
    ANALYZER: auCDtect: CD records authenticity detector, version 0.8.2Copyright (c) 2004 Oleg Berngardt. All rights reserved.Copyright (c) 2004 Alexander Djourik. All rights reserved.
    FILE: 04 - Concerto in Sol minore ''La notte'', RV 439 (Op. 10 n. 2) - I. Largo.flac Size: 7116865 Hash: CD5A4D258993A7190CE3DF6D0255455A Accuracy: -m0 Conclusion: CDDA 100% Signature: B0E783E739ACE95DFBB72B8A444A507F9B96398CFILE: 03 - Concerto in Fa maggiore ''La tempesta di mare'', RV 433 (Op. 10 n. 1) - III. Presto.flac Size: 9399285 Hash: 913CBCA5DDEBF87A494A4361287DD291 Accuracy: -m0 Conclusion: CDDA 100% Signature: 1D28E5FB6EDCDA7266C97F91589088EA8AB73923FILE: 02 - Concerto in Fa maggiore ''La tempesta di mare'', RV 433 (Op. 10 n. 1) - II. Largo.flac Size: 8345532 Hash: 67B9C36AACEF2327D17F896DC74F9457 Accuracy: -m0 Conclusion: CDDA 100% Signature: 210A842318827B77FA5AC6B51D7E3C6F41DF328DFILE: 01 - Concerto in Fa maggiore ''La tempesta di mare'', RV 433 (Op. 10 n. 1) - I. Allegro.flac Size: 12573182 Hash: 1CE97BDE1CC50B686F98515E23E13435 Accuracy: -m0 Conclusion: CDDA 100% Signature: 563E19B1DAD33AD71D0AA4450A7D697815A15CC4FILE: 27 - Concerto in Re maggiore, RV 429 - III. Allegro.flac Size: 17563177 Hash: DEF4A997B70AAC19A27266B550ABB346 Accuracy: -m0 Conclusion: CDDA 100% Signature: 1A9FEB16CA500F49D630D4F53EEFEE22EDE41E80FILE: 26 - Concerto in Re maggiore, RV 429 - II. Andante.flac Size: 8223706 Hash: 73EC628CB02FB4138B6FA3C4A0BF89DF Accuracy: -m0 Conclusion: CDDA 100% Signature: BDC793D08E2CC626C70880FDD0331CCF10025E12FILE: 25 - Concerto in Re maggiore, RV 429 - I. Allegro.flac Size: 11901874 Hash: 36F143288FF037346D56212073BD6B4B Accuracy: -m0 Conclusion: CDDA 100% Signature: DA21A667AEE7B8B07DB3BBCA57E20C50B0A2C58FFILE: 24 - Concerto in La minore, RV 440 - III. Allegro.flac Size: 13265746 Hash: 2ABA537B27A7D4A2B1DE8AD01DB200B9 Accuracy: -m0 Conclusion: CDDA 100% Signature: 1B5485295903DC9D98DDBFD1911601B04FD2ACF7FILE: 23 - Concerto in La minore, RV 440 - II. Larghetto.flac Size: 9349550 Hash: 32531642BEEDA27646CC47FABA04AC64 Accuracy: -m0 Conclusion: CDDA 99% Signature: D5B77263C082B01C11FA2623D8F396CF2C48C20BFILE: 22 - Concerto in La minore, RV 440 - I. Allegro non molto.flac Size: 17455728 Hash: 58A178203F200E0921269AC7FD838BB7 Accuracy: -m0 Conclusion: CDDA 100% Signature: DA42C0B48C024F04C68127546E37C374C2485C0BFILE: 21 - Concerto in Sol maggiore, RV 437 (Op. 10 n. 6) - III. Allegro.flac Size: 10886154 Hash: 999961EDDF9FA0D09470C38DC99D087D Accuracy: -m0 Conclusion: CDDA 100% Signature: 3A73F49E45242838B6B6E8ADDD34D8BFC192B672FILE: 20 - Concerto in Sol maggiore, RV 437 (Op. 10 n. 6) - II. Largo.flac Size: 6920224 Hash: 722259798424770A3C6EFF664A237A20 Accuracy: -m0 Conclusion: CDDA 100% Signature: 567FC200DED4489B5A656F1A08E117F891E1BFC3FILE: 19 - Concerto in Sol maggiore, RV 437 (Op. 10 n. 6) - I. Allegro.flac Size: 19443189 Hash: 01DB39B015950ECA567C5AE1A90BC304 Accuracy: -m0 Conclusion: CDDA 100% Signature: 10211F730C2B73B7C13C1FA533C34D4E41DB6853FILE: 18 - Concerto in Fa maggiore, RV 434 (Op. 10 n. 5) - III. Allegro.flac Size: 7487954 Hash: C61A3ED1038B35A31C87811008B03CF0 Accuracy: -m0 Conclusion: CDDA 100% Signature: 9436978BFA30372DC6302F3C019DE3D258811129FILE: 17 - Concerto in Fa maggiore, RV 434 (Op. 10 n. 5) - II. Largo e cantabile.flac Size: 14194648 Hash: D5D903BF77951438F485B8E486D5639D Accuracy: -m0 Conclusion: CDDA 100% Signature: 897F78548629BEAE5CCBD6DB76B195220331FA40FILE: 16 - Concerto in Fa maggiore, RV 434 (Op. 10 n. 5) - I. Allegro non molto.flac Size: 16636115 Hash: 74727342E352FD1B6D3CCAE1F6B178E0 Accuracy: -m0 Conclusion: CDDA 100% Signature: 860FEADEA1B8601524648480BF00AAF8D0B8AC10FILE: 15 - Concerto in Sol maggiore, RV 435 (Op. 10 n. 4) - III. Allegro.flac Size: 11037248 Hash: F2D7262154E2CAE76952242C0C10924C Accuracy: -m0 Conclusion: CDDA 100% Signature: 7EDDD68C5A9A3BB8F00202530A853AB46FC8CA02FILE: 14 - Concerto in Sol maggiore, RV 435 (Op. 10 n. 4) - II. Largo.flac Size: 9420248 Hash: 695C6F628E26F52EA460412282D9A5F0 Accuracy: -m0 Conclusion: CDDA 100% Signature: 07B7BC6136297F0C813EDD3E701E38A2FD47FC35FILE: 13 - Concerto in Sol maggiore, RV 435 (Op. 10 n. 4) - I. Allegro.flac Size: 13274853 Hash: 2F211FF9568133E5CE08DD18AA1F297D Accuracy: -m0 Conclusion: CDDA 100% Signature: 42B0F757594AD80A4448F83D1531E75355DC2575FILE: 12 - Concerto in Re maggiore ''Il gardellino'', RV 428 (Op. 10 n. 3) - III. Allegro.flac Size: 13546429 Hash: 01DACE76DCDEEA4F81920E2CAE273502 Accuracy: -m0 Conclusion: CDDA 100% Signature: 103334155B7DCAC20E79C2FA3F53F7D89AD470B4FILE: 11 - Concerto in Re maggiore ''Il gardellino'', RV 428 (Op. 10 n. 3) - II. Cantabile.flac Size: 11928605 Hash: 8C3B53EF44231E809FBEB4CA98F33354 Accuracy: -m0 Conclusion: CDDA 100% Signature: B6CA660A610340B939C7A62E5A02DE2255948263FILE: 10 - Concerto in Re maggiore ''Il gardellino'', RV 428 (Op. 10 n. 3) - I. Allegro.flac Size: 17800429 Hash: EA60AD00C69FDC76A49F4F34428D3ACE Accuracy: -m0 Conclusion: CDDA 100% Signature: E53CC3F6112E50E2CCD10602EBC10FBA0ECA564DFILE: 09 - Concerto in Sol minore ''La notte'', RV 439 (Op. 10 n. 2) - VI. Allegro.flac Size: 10435113 Hash: 2B4DC0598AC90B1BCF225B22DF81AB20 Accuracy: -m0 Conclusion: CDDA 100% Signature: CC8BEE51D0395A2A4B4AFA3E817D5F677354D410FILE: 08 - Concerto in Sol minore ''La notte'', RV 439 (Op. 10 n. 2) - V. Il sonno. Largo.flac Size: 7373084 Hash: 4BDEB39390188EC5227CB8AA6B833205 Accuracy: -m0 Conclusion: CDDA 100% Signature: 7256635B37A1D0522536E5309E551ACE80BC6857FILE: 07 - Concerto in Sol minore ''La notte'', RV 439 (Op. 10 n. 2) - IV. Presto.flac Size: 5845916 Hash: 94622ABA3955790836C4D3B2E4DE85B8 Accuracy: -m0 Conclusion: CDDA 100% Signature: 6227C0394F45471D3C6C4E06A33122DEBCAC2DBCFILE: 06 - Concerto in Sol minore ''La notte'', RV 439 (Op. 10 n. 2) - III. Largo.flac Size: 5127582 Hash: 1ABD9753A306E6B5E75F5A91D4F17F71 Accuracy: -m0 Conclusion: CDDA 87% Signature: 6DA527CD457744CE4CC78A2F52AF310E6733A59FFILE: 05 - Concerto in Sol minore ''La notte'', RV 439 (Op. 10 n. 2) - II. Fantasmi. Presto.flac Size: 4332150 Hash: 52F8425F47434ECD5C05A6D0AED35402 Accuracy: -m0 Conclusion: CDDA 100% Signature: 8BF9B1C6EB4B80778C131FB1961F8D824B40F3F7

    CUETools log / Отчёт CUETools

    [CUETools log; Date: 04.12.2013 15:34:00; Version: 2.1.4][AccurateRip ID: 0039f402-04819ffd-850f6d1b] found.Track [ CRC | V2 ] Status 01 [88b37e2a|e1cd2506] (20+19/47) Accurately ripped 02 [a1fb888c|b3bd294f] (22+19/49) Accurately ripped 03 [af8c3fd1|110e4758] (22+19/49) Accurately ripped 04 [60f819ae|8cbf5bb0] (22+19/49) Accurately ripped 05 [02990ada|41b4e6de] (22+19/49) Accurately ripped 06 [d08514b8|9b2b0b14] (22+19/49) Accurately ripped 07 [bc6e50c0|e58e913f] (22+19/49) Accurately ripped 08 [e622de7f|220e6df3] (21+19/48) Accurately ripped 09 [01ff7abc|b1e438c3] (21+19/48) Accurately ripped 10 [c91d13da|95cebb38] (21+19/48) Accurately ripped 11 [b261d20e|e56c5492] (21+19/48) Accurately ripped 12 [3162fe86|2437677a] (21+19/48) Accurately ripped 13 [da5142c7|a0aa1cb1] (21+19/48) Accurately ripped 14 [09cea449|9f0cfb88] (21+19/48) Accurately ripped 15 [45db7d1d|c1bb1488] (21+19/48) Accurately ripped 16 [3d5ce73d|4ccb99f5] (21+18/47) Accurately ripped 17 [ea0504d1|6a7d1989] (21+18/47) Accurately ripped 18 [3fd894bd|43e09511] (21+19/48) Accurately ripped 19 [444dafae|90ec4736] (21+19/48) Accurately ripped 20 [9f37ca8c|ea9a3770] (22+18/48) Accurately ripped 21 [6b1e9862|3e35e6b0] (20+18/46) Accurately ripped 22 [48fd2c1b|f0a4ac4f] (20+18/46) Accurately ripped 23 [db317ec2|522ad3b1] (20+19/47) Accurately ripped 24 [4cba0e01|c7eca3d4] (19+18/45) Accurately ripped 25 [58c80520|414bc848] (20+17/45) Accurately ripped 26 [4ca1a8e5|858c25b0] (20+17/45) Accurately ripped 27 [a2c34b51|24050476] (17+16/41) Accurately rippedOffsetted by -676: 01 [bbc2324c] (02/47) Accurately ripped 02 [921ce720] (02/49) Accurately ripped 03 [677d8161] (02/49) Accurately ripped 04 [4d3e4d1f] (02/49) Accurately ripped 05 [b02a7e4b] (02/49) Accurately ripped 06 [98505900] (02/49) Accurately ripped 07 [102d53fd] (02/49) Accurately ripped 08 [7fe36486] (02/48) Accurately ripped 09 [cdd00256] (02/48) Accurately ripped 10 [5d93f5d1] (02/48) Accurately ripped 11 [ca632eaf] (02/48) Accurately ripped 12 [9c6fdb83] (02/48) Accurately ripped 13 [d5c6d4db] (02/48) Accurately ripped 14 [b091c2de] (02/48) Accurately ripped 15 [4569454b] (02/48) Accurately ripped 16 [5147199b] (02/47) Accurately ripped 17 [b4234605] (02/47) Accurately ripped 18 [b5b691c8] (02/48) Accurately ripped 19 [0050456a] (02/48) Accurately ripped 20 [036876d0] (02/48) Accurately ripped 21 [7cf5b3f8] (02/46) Accurately ripped 22 [4deeb74b] (02/46) Accurately ripped 23 [53f8ceec] (02/47) Accurately ripped 24 [f4f40d2b] (02/45) Accurately ripped 25 [fda68fb9] (02/45) Accurately ripped 26 [f4570e2f] (02/45) Accurately ripped 27 [372c1249] (02/41) Accurately ripped
    Track Peak [ CRC32 ] [W/O NULL] [ LOG ] -- 87,1 [2D0B86B7] [D62CB9D7] 01 84,3 [2D6E9672] [6D26948A] CRC32 02 45,9 [B64F3B14] [76C8ADD0] CRC32 03 71,1 [EE55EF2C] [1427443A] CRC32 04 58,2 [70BFF6DF] [F6128A02] CRC32 05 87,1 [DD5C23CD] [EDA625D6] CRC32 06 27,4 [5E42D655] [F47AF628] CRC32 07 80,8 [0F1B5807] [933485C0] CRC32 08 9,6 [9237C196] [D0AE0B81] CRC32 09 73,4 [17A236C0] [A077DB15] CRC32 10 78,0 [85E3606C] [0E0C6882] CRC32 11 41,9 [85AB9C58] [E9415F2B] CRC32 12 82,6 [EE89917F] [CBB600D3] CRC32 13 58,9 [D12B2C08] [30A9B9F7] CRC32 14 43,4 [2679EA21] [51836DAD] CRC32 15 77,8 [0625E519] [BED46045] CRC32 16 51,3 [36B7B0C6] [4D2CEFE0] CRC32 17 44,7 [C27E6EB8] [865543FA] CRC32 18 68,0 [9B8E63A8] [9FC8E9A6] CRC32 19 58,4 [97F957C7] [9B3C12EC] CRC32 20 36,2 [FF31C759] [2904BF6C] CRC32 21 69,3 [6722D2D0] [EFD6EB33] CRC32 22 74,4 [34FF060E] [04DF921C] CRC32 23 29,6 [9ADC6503] [95A9BD7D] CRC32 24 71,3 [F63887CB] [68CA44C4] CRC32 25 75,0 [E205FCBA] [5793E724] CRC32 26 41,2 [9237E26D] [33DAC92C] CRC32 27 55,5 [000A6F4C] [1186180A] CRC32

    CUE sheet

    TITLE "Antonio Vivaldi: Concerti per Flauto"PERFORMER "Emmanuel Pahud"REM GENRE ClassicalREM DISCID 850F6D1BREM COMMENT "ExactAudioCopy v0.99pb5"FILE "01 - Concerto in Fa maggiore ''La tempesta di mare'', RV 433 (Op. 10 n. 1) - I. Allegro.flac" WAVE TRACK 01 AUDIO TITLE "Concerto in Fa maggiore «La tempesta di mare», RV 433 (Op. 10 n° 1): I. Allegro" PERFORMER "Emmanuel Pahud, Australian Chamber Orchestra. Richard Tognetti, conductor" REM DATE 2005 INDEX 01 00:00:00FILE "02 - Concerto in Fa maggiore ''La tempesta di mare'', RV 433 (Op. 10 n. 1) - II. Largo.flac" WAVE TRACK 02 AUDIO TITLE "Concerto in Fa maggiore «La tempesta di mare», RV 433 (Op. 10 n° 1): II. Largo" PERFORMER "Emmanuel Pahud, Australian Chamber Orchestra. Richard Tognetti, conductor" REM DATE 2005 INDEX 01 00:00:00 TRACK 03 AUDIO TITLE "Concerto in Fa maggiore «La tempesta di mare», RV 433 (Op. 10 n° 1): III. Presto" PERFORMER "Emmanuel Pahud, Australian Chamber Orchestra. Richard Tognetti, conductor" REM DATE 2005 INDEX 00 01:54:60FILE "03 - Concerto in Fa maggiore ''La tempesta di mare'', RV 433 (Op. 10 n. 1) - III. Presto.flac" WAVE INDEX 01 00:00:00 TRACK 04 AUDIO TITLE "Concerto in Sol minore «La notte», RV 439 (Op. 10 n° 2): I. Largo" PERFORMER "Emmanuel Pahud, Australian Chamber Orchestra. Richard Tognetti, conductor" REM DATE 2005 INDEX 00 01:53:12FILE "04 - Concerto in Sol minore ''La notte'', RV 439 (Op. 10 n. 2) - I. Largo.flac" WAVE INDEX 01 00:00:00FILE "05 - Concerto in Sol minore ''La notte'', RV 439 (Op. 10 n. 2) - II. Fantasmi. Presto.flac" WAVE TRACK 05 AUDIO TITLE "Concerto in Sol minore «La notte», RV 439 (Op. 10 n° 2): II. Fantasmi: Presto" PERFORMER "Emmanuel Pahud, Australian Chamber Orchestra. Richard Tognetti, conductor" REM DATE 2005 INDEX 01 00:00:00FILE "06 - Concerto in Sol minore ''La notte'', RV 439 (Op. 10 n. 2) - III. Largo.flac" WAVE TRACK 06 AUDIO TITLE "Concerto in Sol minore «La notte», RV 439 (Op. 10 n° 2): III. Largo" PERFORMER "Emmanuel Pahud, Australian Chamber Orchestra. Richard Tognetti, conductor" REM DATE 2005 INDEX 01 00:00:00FILE "07 - Concerto in Sol minore ''La notte'', RV 439 (Op. 10 n. 2) - IV. Presto.flac" WAVE TRACK 07 AUDIO TITLE "Concerto in Sol minore «La notte», RV 439 (Op. 10 n° 2): IV. Presto" PERFORMER "Emmanuel Pahud, Australian Chamber Orchestra. Richard Tognetti, conductor" REM DATE 2005 INDEX 01 00:00:00 TRACK 08 AUDIO TITLE "Concerto in Sol minore «La notte», RV 439 (Op. 10 n° 2): V. Il sonno: Largo" PERFORMER "Emmanuel Pahud, Australian Chamber Orchestra. Richard Tognetti, conductor" REM DATE 2005 INDEX 00 01:06:71FILE "08 - Concerto in Sol minore ''La notte'', RV 439 (Op. 10 n. 2) - V. Il sonno. Largo.flac" WAVE INDEX 01 00:00:00FILE "09 - Concerto in Sol minore ''La notte'', RV 439 (Op. 10 n. 2) - VI. Allegro.flac" WAVE TRACK 09 AUDIO TITLE "Concerto in Sol minore «La notte», RV 439 (Op. 10 n° 2): VI. Allegro" PERFORMER "Emmanuel Pahud, Australian Chamber Orchestra. Richard Tognetti, conductor" REM DATE 2005 INDEX 01 00:00:00 TRACK 10 AUDIO TITLE "Concerto in Re maggiore «Il gardellino», RV 428 (Op. 10 n° 3): I. Allegro" PERFORMER "Emmanuel Pahud, Australian Chamber Orchestra. Richard Tognetti, conductor" REM DATE 2005 INDEX 00 02:01:11FILE "10 - Concerto in Re maggiore ''Il gardellino'', RV 428 (Op. 10 n. 3) - I. Allegro.flac" WAVE INDEX 01 00:00:00 TRACK 11 AUDIO TITLE "Concerto in Re maggiore «Il gardellino», RV 428 (Op. 10 n° 3): II. Cantabile" PERFORMER "Emmanuel Pahud, Australian Chamber Orchestra. Richard Tognetti, conductor" REM DATE 2005 INDEX 00 03:48:11FILE "11 - Concerto in Re maggiore ''Il gardellino'', RV 428 (Op. 10 n. 3) - II. Cantabile.flac" WAVE INDEX 01 00:00:00 TRACK 12 AUDIO TITLE "Concerto in Re maggiore «Il gardellino», RV 428 (Op. 10 n° 3): III. Allegro" PERFORMER "Emmanuel Pahud, Australian Chamber Orchestra. Richard Tognetti, conductor" REM DATE 2005 INDEX 00 02:33:26FILE "12 - Concerto in Re maggiore ''Il gardellino'', RV 428 (Op. 10 n. 3) - III. Allegro.flac" WAVE INDEX 01 00:00:00 TRACK 13 AUDIO TITLE "Concerto in Sol maggiore, RV 435 (Op. 10 n° 4): I. Allegro" PERFORMER "Emmanuel Pahud, Australian Chamber Orchestra. Richard Tognetti, conductor" REM DATE 2005 INDEX 00 02:48:65FILE "13 - Concerto in Sol maggiore, RV 435 (Op. 10 n. 4) - I. Allegro.flac" WAVE INDEX 01 00:00:00 TRACK 14 AUDIO TITLE "Concerto in Sol maggiore, RV 435 (Op. 10 n° 4): II. Largo" PERFORMER "Emmanuel Pahud, Australian Chamber Orchestra. Richard Tognetti, conductor" REM DATE 2005 INDEX 00 02:41:17FILE "14 - Concerto in Sol maggiore, RV 435 (Op. 10 n. 4) - II. Largo.flac" WAVE INDEX 01 00:00:00 TRACK 15 AUDIO TITLE "Concerto in Sol maggiore, RV 435 (Op. 10 n° 4): III. Allegro" PERFORMER "Emmanuel Pahud, Australian Chamber Orchestra. Richard Tognetti, conductor" REM DATE 2005 INDEX 00 02:10:69FILE "15 - Concerto in Sol maggiore, RV 435 (Op. 10 n. 4) - III. Allegro.flac" WAVE INDEX 01 00:00:00 TRACK 16 AUDIO TITLE "Concerto in Fa maggiore, RV 434 (Op. 10 n° 5): I. Allegro non molto" PERFORMER "Emmanuel Pahud, Australian Chamber Orchestra. Richard Tognetti, conductor" REM DATE 2005 INDEX 00 02:11:62FILE "16 - Concerto in Fa maggiore, RV 434 (Op. 10 n. 5) - I. Allegro non molto.flac" WAVE INDEX 01 00:00:00 TRACK 17 AUDIO TITLE "Concerto in Fa maggiore, RV 434 (Op. 10 n° 5): II. Largo e cantabile" PERFORMER "Emmanuel Pahud, Australian Chamber Orchestra. Richard Tognetti, conductor" REM DATE 2005 INDEX 00 03:41:02FILE "17 - Concerto in Fa maggiore, RV 434 (Op. 10 n. 5) - II. Largo e cantabile.flac" WAVE INDEX 01 00:00:00 TRACK 18 AUDIO TITLE "Concerto in Fa maggiore, RV 434 (Op. 10 n° 5): III. Allegro" PERFORMER "Emmanuel Pahud, Australian Chamber Orchestra. Richard Tognetti, conductor" REM DATE 2005 INDEX 00 03:24:68FILE "18 - Concerto in Fa maggiore, RV 434 (Op. 10 n. 5) - III. Allegro.flac" WAVE INDEX 01 00:00:00 TRACK 19 AUDIO TITLE "Concerto in Sol maggiore, RV 437 (Op. 10 n° 6): I. Allegro" PERFORMER "Emmanuel Pahud, Australian Chamber Orchestra. Richard Tognetti, conductor" REM DATE 2005 INDEX 00 01:38:00FILE "19 - Concerto in Sol maggiore, RV 437 (Op. 10 n. 6) - I. Allegro.flac" WAVE INDEX 01 00:00:00 TRACK 20 AUDIO TITLE "Concerto in Sol maggiore, RV 437 (Op. 10 n° 6): II. Largo" PERFORMER "Emmanuel Pahud, Australian Chamber Orchestra. Richard Tognetti, conductor" REM DATE 2005 INDEX 00 04:06:31FILE "20 - Concerto in Sol maggiore, RV 437 (Op. 10 n. 6) - II. Largo.flac" WAVE INDEX 01 00:00:00FILE "21 - Concerto in Sol maggiore, RV 437 (Op. 10 n. 6) - III. Allegro.flac" WAVE TRACK 21 AUDIO TITLE "Concerto in Sol maggiore, RV 437 (Op. 10 n° 6): III. Allegro" PERFORMER "Emmanuel Pahud, Australian Chamber Orchestra. Richard Tognetti, conductor" REM DATE 2005 INDEX 01 00:00:00 TRACK 22 AUDIO TITLE "Concerto in La minore, RV 440: I. Allegro non molto" PERFORMER "Emmanuel Pahud, Australian Chamber Orchestra. Richard Tognetti, conductor" REM DATE 2005 INDEX 00 02:21:21FILE "22 - Concerto in La minore, RV 440 - I. Allegro non molto.flac" WAVE INDEX 01 00:00:00 TRACK 23 AUDIO TITLE "Concerto in La minore, RV 440: II. Larghetto" PERFORMER "Emmanuel Pahud, Australian Chamber Orchestra. Richard Tognetti, conductor" REM DATE 2005 INDEX 00 03:39:68FILE "23 - Concerto in La minore, RV 440 - II. Larghetto.flac" WAVE INDEX 01 00:00:00 TRACK 24 AUDIO TITLE "Concerto in La minore, RV 440: III. Allegro" PERFORMER "Emmanuel Pahud, Australian Chamber Orchestra. Richard Tognetti, conductor" REM DATE 2005 INDEX 00 02:25:19FILE "24 - Concerto in La minore, RV 440 - III. Allegro.flac" WAVE INDEX 01 00:00:00 TRACK 25 AUDIO TITLE "Concerto in Re maggiore, RV 429: I. Allegro" PERFORMER "Emmanuel Pahud, Australian Chamber Orchestra. Richard Tognetti, conductor" REM DATE 2005 INDEX 00 02:48:10FILE "25 - Concerto in Re maggiore, RV 429 - I. Allegro.flac" WAVE INDEX 01 00:00:00 TRACK 26 AUDIO TITLE "Concerto in Re maggiore, RV 429: II. Andante" PERFORMER "Emmanuel Pahud, Australian Chamber Orchestra. Richard Tognetti, conductor" REM DATE 2005 INDEX 00 02:27:54FILE "26 - Concerto in Re maggiore, RV 429 - II. Andante.flac" WAVE INDEX 01 00:00:00FILE "27 - Concerto in Re maggiore, RV 429 - III. Allegro.flac" WAVE TRACK 27 AUDIO TITLE "Concerto in Re maggiore, RV 429: III. Allegro" PERFORMER "Emmanuel Pahud, Australian Chamber Orchestra. Richard Tognetti, conductor" REM DATE 2005 INDEX 01 00:00:00
    [teatrix.ru].t9991.torrent 
    Торрент: Зарегистрирован [ 2015-10-25 20:37 ] · E576C2080953710A964D758E227EDCF107EDF40E

    Скачать .torrent

    Скачать

    16 KB

    Статус: проверено
    Скачан: 0 раз
    Размер: 291 MB
    terms.php



  • Быстрый ответ

    Имя:

          
    Для отправки сообщений необходимо включить JavaScript
    Показать сообщения:    

    Текущее время: 06-Дек 20:55

    Часовой пояс: UTC + 3


    Вы можете начинать темы
    Вы можете отвечать на сообщения
    Вы не можете редактировать свои сообщения
    Вы не можете удалять свои сообщения
    Вы не можете голосовать в опросах
    Вы не можете прикреплять файлы к сообщениям
    Вы можете скачивать файлы