(Classical / Piano Concerto) Franz Liszt - Konzerte fur Klavier und Orchester • Totentanz / Ференц Лист - Фортепианные концерты • Пляска смерти (Alfred Brendel, London Philharmonic Orchestra, Bernard Haitink, 1972) - 2005, FLAC (image+.cue) lossless


Статистика раздачи [Обновить пиров]
Размер:  241 MB   |    Зарегистрирован:  1 год 1 месяц   |    Скачан:  0 раз

Полного источника не было: Никогда

 
   
 
 
 

[Цитировать]

Franz Liszt | Ференц Лист
(1811–1886)



Konzerte für Klavier und OrchesterTotentanz
Концерты для фортепиано с оркестромПляска смерти


Alfred Brendel piano
London Philharmonic Orchestra
Bernard Haitink conductor


Жанр: Classical / Piano Concerto
Дата и место записи: London, V.1972
Формат записи: ADD, Stereo
Год издания диска: 2005
Издатель (лейбл): Philips
Номер по каталогу: 476 7098
Аудиокодек: FLAC
Тип рипа: image+.cue
Битрейт аудио: lossless
Продолжительность: 55:12
Наличие сканов в содержимом раздачи: да
Источник: блог OdeonMusic


Tracklist / Треклист
Klavierkonzert Nr. 2 A-dur, S. 125 - 21:09
Adagio sostenuto assai. — Allegro agitato assai - 7:25
  • Allegro moderato - 4:56
  • Allegro deciso. — Marziale un poco meno allegro - 6:52
  • Allegro animato - 1:57Klavierkonzert Nr. 1 Es-dur, S. 124 - 18:28
    I. Allegro maestoso - 5:37
  • II. Quasi adagio. — Allegretto vivace. — Allegro animato - 8:36
  • III. Allegro marziale animato. — Presto - 4:15Totentanz (Danse macabre), S. 126/2 - 15:35

    -

    EAC log / Отчёт EAC

    Exact Audio Copy V1.0 beta 3 from 29. August 2011
    EAC extraction logfile from 15. October 2013, 19:45
    Alfred Brendel / Liszt - Piano Concertos - Alfred Brendel
    Used drive : TSSTcorpCDDVDW SH-222BB Adapter: 2 ID: 1
    Read mode : SecureUtilize accurate stream : YesDefeat audio cache : YesMake use of C2 pointers : No
    Read offset correction : 6Overread into Lead-In and Lead-Out : NoFill up missing offset samples with silence : YesDelete leading and trailing silent blocks : NoNull samples used in CRC calculations : YesUsed interface : Native Win32 interface for Win NT & 2000
    Used output format : User Defined EncoderSelected bitrate : 1024 kBit/sQuality : HighAdd ID3 tag : NoCommand line compressor : C:\Program Files\Exact Audio Copy\Flac\flac.exeAdditional command line options : -8 -V -T "TITLE=%title%" -T "ARTIST=%artist%" -T "ALBUMARTIST=%albumartist%" -T "ALBUM=%albumtitle%" -T "DATE=%year%" -T "TRACKNUMBER=%tracknr%" -T "TRACKTOTAL=%numtracks%" -T "GENRE=%genre%" -T "COMMENT=%comment%" -T "PERFORMER=%albuminterpret%" -T "COMPOSER=%composer%" %source% -o %dest%
    TOC of the extracted CD
    Track | Start | Length | Start sector | End sector --------------------------------------------------------- 1 | 0:00.33 | 7:24.42 | 33 | 33374 2 | 7:25.00 | 4:55.50 | 33375 | 55549 3 | 12:20.50 | 6:51.70 | 55550 | 86444 4 | 19:12.45 | 1:56.63 | 86445 | 95207 5 | 21:09.33 | 5:37.00 | 95208 | 120482 6 | 26:46.33 | 8:35.62 | 120483 | 159169 7 | 35:22.20 | 4:15.13 | 159170 | 178307 8 | 39:37.33 | 15:34.74 | 178308 | 248431
    Range status and errors
    Selected range
    Filename E:\4000\[4147] Liszt – Piano Concertos – Alfred Brendel\Liszt - Piano Concertos - Alfred Brendel.wav
    Peak level 99.9 % Extraction speed 2.3 X Range quality 100.0 % Test CRC 6513FBB3 Copy CRC 6513FBB3 Copy OK
    No errors occurred
    AccurateRip summary
    Track 1 accurately ripped (confidence 2) [BA5250E9] (AR v1)Track 2 accurately ripped (confidence 2) [06D4CEFC] (AR v1)Track 3 accurately ripped (confidence 2) [8EB1CED7] (AR v1)Track 4 accurately ripped (confidence 2) [5ABE01E7] (AR v1)Track 5 accurately ripped (confidence 2) [62095AC2] (AR v1)Track 6 accurately ripped (confidence 2) [B33838C3] (AR v1)Track 7 accurately ripped (confidence 2) [0F914FE8] (AR v1)Track 8 accurately ripped (confidence 2) [163B8C05] (AR v1)
    All tracks accurately ripped
    End of status report

    auCDtect Task Manager log / Отчёт auCDtect Task Manager

    -----------------------
    DON'T MODIFY THIS FILE
    -----------------------
    PERFORMER: auCDtect Task Manager, ver. 1.5.1RC3 build 1.5.1.4Copyright (c) 2008-2010 y-soft. All rights reserved
    ANALYZER: auCDtect: CD records authenticity detector, version 0.8.2Copyright (c) 2004 Oleg Berngardt. All rights reserved.Copyright (c) 2004 Alexander Djourik. All rights reserved.
    FILE: Liszt. Klavierkonzerte, Totentanz (Brendel, Haitink).flac Size: 244128572 Hash: B00A9A2094999E93CD9210F1C7C01DF3 Accuracy: -m0 Conclusion: CDDA 100% Signature: 3C71C150E5AA07FC1CE8C930CB3D8730ADB238ED

    CUETools log / Отчёт CUETools

    [CUETools log; Date: 27.11.2013 13:28:00; Version: 2.1.4]Pregap length 00:00:33.[AccurateRip ID: 000ee86c-00640445-610cf008] found.Track [ CRC | V2 ] Status 01 [ba5250e9|e2d8dd08] (2+2/4) Accurately ripped 02 [06d4cefc|d1ec6d8e] (2+2/4) Accurately ripped 03 [8eb1ced7|70540a92] (2+2/4) Accurately ripped 04 [5abe01e7|881d47de] (2+2/4) Accurately ripped 05 [62095ac2|85f0cd5f] (2+2/4) Accurately ripped 06 [b33838c3|01517819] (2+2/4) Accurately ripped 07 [0f914fe8|7b55de1e] (2+2/4) Accurately ripped 08 [163b8c05|7fdd3cc5] (2+2/4) Accurately ripped
    Track Peak [ CRC32 ] [W/O NULL] [ LOG ] -- 99,9 [6513FBB3] [D67A6EF5] CRC32 01 74,0 [2AA4F450] [3613F1B1] 02 38,7 [57E3D744] [6FAB5AC7] 03 94,6 [0E6E8BF8] [C24E06A4] 04 99,7 [37631933] [8B2CA10E] 05 94,1 [B6CAA8E5] [527836B4] 06 81,3 [B45506A9] [DC48FB40] 07 93,3 [9C0AF1B8] [305759F9] 08 99,9 [7052A32C] [EDB6D41F]

    CUE sheet

    TITLE "Franz Liszt: Klavierkonzerte • Totentanz"PERFORMER "Alfred Brendel"REM GENRE ClassicalREM DISCID 610CF008REM COMMENT "ExactAudioCopy v1.0b3"FILE "Liszt. Klavierkonzerte, Totentanz (Brendel, Haitink).flac" WAVE TRACK 01 AUDIO TITLE "Klavierkonzert Nr. 2 A-dur, S. 125: Adagio sostenuto assai. — Allegro agitato assai" PERFORMER "Alfred Brendel, London Philharmonic Orchestra. Bernard Haitink, conductor" REM DATE 1972 INDEX 00 00:00:00 INDEX 01 00:00:33 TRACK 02 AUDIO TITLE "Klavierkonzert Nr. 2 A-dur, S. 125: Allegro moderato" PERFORMER "Alfred Brendel, London Philharmonic Orchestra. Bernard Haitink, conductor" REM DATE 1972 INDEX 01 07:25:00 TRACK 03 AUDIO TITLE "Klavierkonzert Nr. 2 A-dur, S. 125: Allegro deciso. — Marziale un poco meno allegro" PERFORMER "Alfred Brendel, London Philharmonic Orchestra. Bernard Haitink, conductor" REM DATE 1972 INDEX 01 12:20:50 TRACK 04 AUDIO TITLE "Klavierkonzert Nr. 2 A-dur, S. 125: Allegro animato" PERFORMER "Alfred Brendel, London Philharmonic Orchestra. Bernard Haitink, conductor" REM DATE 1972 INDEX 01 19:12:45 TRACK 05 AUDIO TITLE "Klavierkonzert Nr. 1 Es-dur, S. 124: I. Allegro maestoso" PERFORMER "Alfred Brendel, London Philharmonic Orchestra. Bernard Haitink, conductor" REM DATE 1972 INDEX 00 21:00:33 INDEX 01 21:09:33 TRACK 06 AUDIO TITLE "Klavierkonzert Nr. 1 Es-dur, S. 124: II. Quasi adagio. — Allegretto vivace. — Allegro animato" PERFORMER "Alfred Brendel, London Philharmonic Orchestra. Bernard Haitink, conductor" REM DATE 1972 INDEX 00 26:45:33 INDEX 01 26:46:33 TRACK 07 AUDIO TITLE "Klavierkonzert Nr. 1 Es-dur, S. 124: III. Allegro marziale animato. — Presto" PERFORMER "Alfred Brendel, London Philharmonic Orchestra. Bernard Haitink, conductor" REM DATE 1972 INDEX 01 35:22:20 TRACK 08 AUDIO TITLE "Totentanz (Danse macabre), S. 126/2" PERFORMER "Alfred Brendel, London Philharmonic Orchestra. Bernard Haitink, conductor" REM DATE 1972 INDEX 00 39:30:33 INDEX 01 39:37:33
    \
    [teatrix.ru].t9992.torrent 
    Торрент: Зарегистрирован [ 2015-10-25 20:37 ] · 2174D668A46751546FFC50FC13311DA4F7B56874

    Скачать .torrent

    Скачать

    20 KB

    Статус: проверено
    Скачан: 0 раз
    Размер: 241 MB
    terms.php



  • Быстрый ответ

    Имя:

          
    Для отправки сообщений необходимо включить JavaScript
    Показать сообщения:    

    Текущее время: 06-Дек 17:06

    Часовой пояс: UTC + 3


    Вы можете начинать темы
    Вы можете отвечать на сообщения
    Вы не можете редактировать свои сообщения
    Вы не можете удалять свои сообщения
    Вы не можете голосовать в опросах
    Вы не можете прикреплять файлы к сообщениям
    Вы можете скачивать файлы