(Classical, Baroque, Authentic, Wind) Georg Philipp Telemann - Wind Concertos. Vol. 3 [La Stagione Frankfurt, Camerata Koln, Michael Schneider], CPO 2008, FLAC (image+.cue), lossless


Статистика раздачи [Обновить пиров]
Размер:  250 MB   |    Зарегистрирован:  1 год 1 месяц   |    Скачан:  0 раз

Полного источника не было: 3 дня

 
   
 
 
 

[Цитировать]

Georg Philipp Telemann
Concerti per strumenti a fiato. Tomo Terzo.
TWV 42:F14, 51:c1, 51:D4, 51:D7, 51:G2, 53:G1

Концерты для духовых. Том Третий.-- Жанр: Classical, Baroque, Authentic, Wind
Страна-производитель диска: Germany
Год издания: 2008
Лейбл: CPO
Номер в каталоге: CPO 777 268-2
Аудиокодек: FLAC
Тип рипа: image+.cue
Битрейт аудио: lossless
Продолжительность: 00:53:40
Наличие сканов: имеются
Источник: релизёр
LOSSY-La Stagione Frankfurt e Camerata Köln
Michael Schneider direttore e flautista
Ulrich Hübner cornista
Karl Kaiser flautista
Martin Stadler oboista
Hannes Rux trombetta
Marita Schaar fagottista

Треклист

01. TWV 51:D4 - Concerto in Re maggiore per ottavino, archi e basso continuo - I. Napolitana [00:03:42]
02. II. Allegro [00:02:37]
03. III. Largo [00:00:55]
04. IV. Tempo di Minuetto [00:02:19]
05. TWV 51:c1 - Concerto in Do minore per oboe, archi e basso continuo - I. Adagio [00:02:09]
06. I. Allegro [00:02:30]
07. II. Adagio [00:01:53]
08. IV. Allegro [00:03:16]
09. TWV 42:F14 - Concerto in Fa maggiore per ottavino, corno e basso continuo - I. Concerto [00:02:05]
10. II. Loure [00:02:22]
11. III. Tempo di Minue [00:02:50]
12. TWV 51:G2 - Concerto in Sol maggiore per flauto, archi e basso continuo - I. Andante [00:02:42]
13. II. Vivace [00:02:10]
14. III. Grave [00:02:25]
15. IV. Allegro [00:02:31]
16. TWV 51:D7 - Concerto in Re maggiore per tromba, archi e basso continuo - I. Adagio [00:01:42]
17. II. Allegro [00:01:54]
18. III. Grave [00:01:48]
19. IV. Allegro [00:01:44]
20. TWV 53:G1 - Concerto in Sol maggiore per due flauti traversieri, fagotto, archi e basso continuo - I. [Vivace] [00:02:20]
21. II. Allegro [00:02:39]
22. III. Largo [00:02:33]
23. IV. Presto [00:02:52]

LOG EAC

Exact Audio Copy V1.0 beta 3 from 29. August 2011
EAC extraction logfile from 5. March 2013, 20:58
La Stagione Frankfurt e Camerata Koln / Telemann. Concerti per strumenti a fiato. Tomo Terzo [CPO 2008].
Used drive : TSSTcorpCDDVDW SH-222BB Adapter: 2 ID: 1
Read mode : Secure
Utilize accurate stream : Yes
Defeat audio cache : Yes
Make use of C2 pointers : No
Read offset correction : 6
Overread into Lead-In and Lead-Out : No
Fill up missing offset samples with silence : Yes
Delete leading and trailing silent blocks : No
Null samples used in CRC calculations : Yes
Used interface : Native Win32 interface for Win NT & 2000
Used output format : User Defined Encoder
Selected bitrate : 1024 kBit/s
Quality : High
Add ID3 tag : No
Command line compressor : C:\Program Files\Exact Audio Copy\Flac\flac.exe
Additional command line options : -8 -V -T "TITLE=%title%" -T "ARTIST=%artist%" -T "ALBUMARTIST=%albumartist%" -T "ALBUM=%albumtitle%" -T "DATE=%year%" -T "TRACKNUMBER=%tracknr%" -T "TRACKTOTAL=%numtracks%" -T "GENRE=%genre%" -T "COMMENT=%comment%" -T "PERFORMER=%albuminterpret%" -T "COMPOSER=%composer%" %source% -o %dest%
TOC of the extracted CD
Track | Start | Length | Start sector | End sector
---------------------------------------------------------
1 | 0:00.00 | 3:42.52 | 0 | 16701
2 | 3:42.52 | 2:37.20 | 16702 | 28496
3 | 6:19.72 | 0:55.52 | 28497 | 32673
4 | 7:15.49 | 2:19.63 | 32674 | 43161
5 | 9:35.37 | 2:09.45 | 43162 | 52881
6 | 11:45.07 | 2:30.34 | 52882 | 64165
7 | 14:15.41 | 1:53.13 | 64166 | 72653
8 | 16:08.54 | 3:16.42 | 72654 | 87395
9 | 19:25.21 | 2:05.63 | 87396 | 96833
10 | 21:31.09 | 2:22.19 | 96834 | 107502
11 | 23:53.28 | 2:50.67 | 107503 | 120319
12 | 26:44.20 | 2:42.01 | 120320 | 132470
13 | 29:26.21 | 2:10.29 | 132471 | 142249
14 | 31:36.50 | 2:25.35 | 142250 | 153159
15 | 34:02.10 | 2:31.43 | 153160 | 164527
16 | 36:33.53 | 1:42.02 | 164528 | 172179
17 | 38:15.55 | 1:54.27 | 172180 | 180756
18 | 40:10.07 | 1:48.43 | 180757 | 188899
19 | 41:58.50 | 1:44.47 | 188900 | 196746
20 | 43:43.22 | 2:20.01 | 196747 | 207247
21 | 46:03.23 | 2:39.69 | 207248 | 219241
22 | 48:43.17 | 2:33.32 | 219242 | 230748
23 | 51:16.49 | 2:52.46 | 230749 | 243694
Range status and errors
Selected range
Filename D:\ Telemann / Telemann. Concerti per strumenti a fiato. Tomo Terzo [CPO 2008] \ Telemann. Concerti per strumenti a fiato. Tomo Terzo [CPO 2008].wav
Peak level 89.7 %
Extraction speed 6.9 X
Range quality 99.9 %
Test CRC EB64AA18
Copy CRC EB64AA18
Copy OK
No errors occurred
AccurateRip summary
Track 1 accurately ripped (confidence 5) [255D91EA] (AR v1)
Track 2 accurately ripped (confidence 5) [4BE1367A] (AR v1)
Track 3 accurately ripped (confidence 5) [F95CB75E] (AR v1)
Track 4 accurately ripped (confidence 4) [68BED6C7] (AR v1)
Track 5 accurately ripped (confidence 5) [6666B05F] (AR v1)
Track 6 accurately ripped (confidence 5) [1718E45F] (AR v1)
Track 7 accurately ripped (confidence 5) [45067712] (AR v1)
Track 8 accurately ripped (confidence 4) [ADC2D3BE] (AR v1)
Track 9 accurately ripped (confidence 5) [2C50AFF1] (AR v1)
Track 10 accurately ripped (confidence 5) [4F61EBCB] (AR v1)
Track 11 accurately ripped (confidence 4) [DAC7DC53] (AR v1)
Track 12 accurately ripped (confidence 5) [74990162] (AR v1)
Track 13 accurately ripped (confidence 5) [0BD8AE60] (AR v1)
Track 14 accurately ripped (confidence 5) [1D0598AC] (AR v1)
Track 15 accurately ripped (confidence 4) [6398586E] (AR v1)
Track 16 accurately ripped (confidence 5) [D1820094] (AR v1)
Track 17 accurately ripped (confidence 5) [7FD07E4F] (AR v1)
Track 18 accurately ripped (confidence 5) [FB8FDC8C] (AR v1)
Track 19 accurately ripped (confidence 4) [1AC99216] (AR v1)
Track 20 accurately ripped (confidence 5) [4F24957E] (AR v1)
Track 21 accurately ripped (confidence 5) [031B4716] (AR v1)
Track 22 accurately ripped (confidence 5) [852E0840] (AR v1)
Track 23 accurately ripped (confidence 5) [E21E7189] (AR v1)
All tracks accurately ripped
End of status report

.CUE

REM GENRE Musica barocca
REM DISCID 5A0CB117
REM COMMENT "TitoManlio"
TITLE "Telemann. Concerti per strumenti a fiato. Tomo Terzo [CPO 2008]."
FILE "Telemann. Concerti per strumenti a fiato. Tomo Terzo [CPO 2008].flac" WAVE
TRACK 01 AUDIO
TITLE "Concerto TWV 51:D4 in Re maggiore per ottavino, archi e basso continuo - I. Napolitana"
PERFORMER "Camerata Köln, Michael Schneider [direttore], Karl Kaiser [flautista]"
FLAGS DCP
INDEX 01 00:00:00
TRACK 02 AUDIO
TITLE "Concerto TWV 51:D4 in Re maggiore per ottavino, archi e basso continuo - II. Allegro"
PERFORMER "Camerata Köln, Michael Schneider [direttore], Karl Kaiser [flautista]"
FLAGS DCP
INDEX 01 03:42:52
TRACK 03 AUDIO
TITLE "Concerto TWV 51:D4 in Re maggiore per ottavino, archi e basso continuo - III. Largo"
PERFORMER "Camerata Köln, Michael Schneider [direttore], Karl Kaiser [flautista]"
FLAGS DCP
INDEX 01 06:19:72
TRACK 04 AUDIO
TITLE "Concerto TWV 51:D4 in Re maggiore per ottavino, archi e basso continuo - IV. Tempo di Minuetto"
PERFORMER "Camerata Köln, Michael Schneider [direttore], Karl Kaiser [flautista]"
FLAGS DCP
INDEX 01 07:15:49
TRACK 05 AUDIO
TITLE "Concerto TWV 51:c1 in Do minore per oboe, archi e basso continuo - I. Adagio"
PERFORMER "La Stagione Frankfurt, Michael Schneider [direttore], Martin Stadler [oboista]"
FLAGS DCP
INDEX 00 09:30:28
INDEX 01 09:35:37
TRACK 06 AUDIO
TITLE "Concerto TWV 51:c1 in Do minore per oboe, archi e basso continuo - II. Allegro"
PERFORMER "La Stagione Frankfurt, Michael Schneider [direttore], Martin Stadler [oboista]"
FLAGS DCP
INDEX 01 11:45:07
TRACK 07 AUDIO
TITLE "Concerto TWV 51:c1 in Do minore per oboe, archi e basso continuo - III. Adagio"
PERFORMER "La Stagione Frankfurt, Michael Schneider [direttore], Martin Stadler [oboista]"
FLAGS DCP
INDEX 01 14:15:41
TRACK 08 AUDIO
TITLE "Concerto TWV 51:c1 in Do minore per oboe, archi e basso continuo - IV. Allegro"
PERFORMER "La Stagione Frankfurt, Michael Schneider [direttore], Martin Stadler [oboista]"
FLAGS DCP
INDEX 01 16:08:54
TRACK 09 AUDIO
TITLE "Concerto TWV 42:F14 in Fa maggiore per ottavino, corno e basso continuo - I. Concerto"
PERFORMER "Camerata Köln, Michael Schneider [direttore e flautista], Ulrich Hübner [cornista]"
FLAGS DCP
INDEX 00 19:18:73
INDEX 01 19:25:21
TRACK 10 AUDIO
TITLE "Concerto TWV 42:F14 in Fa maggiore per ottavino, corno e basso continuo - II. Loure"
PERFORMER "Camerata Köln, Michael Schneider [direttore e flautista], Ulrich Hübner [cornista]"
FLAGS DCP
INDEX 01 21:31:09
TRACK 11 AUDIO
TITLE "Concerto TWV 42:F14 in Fa maggiore per ottavino, corno e basso continuo - III. Tempo di Minue"
PERFORMER "Camerata Köln, Michael Schneider [direttore e flautista], Ulrich Hübner [cornista]"
FLAGS DCP
INDEX 01 23:53:28
TRACK 12 AUDIO
TITLE "Concerto TWV 51:G2 in Sol maggiore per flauto, archi e basso continuo - I. Andante"
PERFORMER "La Stagione Frankfurt, Michael Schneider [direttore], Karl Kaiser [flautista]"
FLAGS DCP
INDEX 00 26:38:42
INDEX 01 26:44:20
TRACK 13 AUDIO
TITLE "Concerto TWV 51:G2 in Sol maggiore per flauto, archi e basso continuo - II. Vivace"
PERFORMER "La Stagione Frankfurt, Michael Schneider [direttore], Karl Kaiser [flautista]"
FLAGS DCP
INDEX 01 29:26:21
TRACK 14 AUDIO
TITLE "Concerto TWV 51:G2 in Sol maggiore per flauto, archi e basso continuo - III. Grave"
PERFORMER "La Stagione Frankfurt, Michael Schneider [direttore], Karl Kaiser [flautista]"
FLAGS DCP
INDEX 01 31:36:50
TRACK 15 AUDIO
TITLE "Concerto TWV 51:G2 in Sol maggiore per flauto, archi e basso continuo - IV. Allegro"
PERFORMER "La Stagione Frankfurt, Michael Schneider [direttore], Karl Kaiser [flautista]"
FLAGS DCP
INDEX 01 34:02:10
TRACK 16 AUDIO
TITLE "Concerto TWV 51:D7 in Re maggiore per tromba, archi e basso continuo - I. Adagio"
PERFORMER "Camerata Köln, Michael Schneider [direttore], Hannes Rux [trombetta]"
FLAGS DCP
INDEX 00 36:27:60
INDEX 01 36:33:53
TRACK 17 AUDIO
TITLE "Concerto TWV 51:D7 in Re maggiore per tromba, archi e basso continuo - II. Allegro"
PERFORMER "Camerata Köln, Michael Schneider [direttore], Hannes Rux [trombetta]"
FLAGS DCP
INDEX 01 38:15:55
TRACK 18 AUDIO
TITLE "Concerto TWV 51:D7 in Re maggiore per tromba, archi e basso continuo - III. Grave"
PERFORMER "Camerata Köln, Michael Schneider [direttore], Hannes Rux [trombetta]"
FLAGS DCP
INDEX 01 40:10:07
TRACK 19 AUDIO
TITLE "Concerto TWV 51:D7 in Re maggiore per tromba, archi e basso continuo - IV. Allegro"
PERFORMER "Camerata Köln, Michael Schneider [direttore], Hannes Rux [trombetta]"
FLAGS DCP
INDEX 01 41:58:50
TRACK 20 AUDIO
TITLE "Concerto TWV 53:G1 in Sol maggiore per due flauti traversieri, fagotto, archi e basso continuo - I. [Vivace]"
PERFORMER "La Stagione Frankfurt, Michael Schneider [direttore e flautista], Karl Kaiser [flautista], Marita Schaar [fagottista]"
FLAGS DCP
INDEX 00 43:37:07
INDEX 01 43:43:22
TRACK 21 AUDIO
TITLE "Concerto TWV 53:G1 in Sol maggiore per due flauti traversieri, fagotto, archi e basso continuo - II. Allegro"
PERFORMER "La Stagione Frankfurt, Michael Schneider [direttore e flautista], Karl Kaiser [flautista], Marita Schaar [fagottista]"
FLAGS DCP
INDEX 01 46:03:23
TRACK 22 AUDIO
TITLE "Concerto TWV 53:G1 in Sol maggiore per due flauti traversieri, fagotto, archi e basso continuo - III. Largo"
PERFORMER "La Stagione Frankfurt, Michael Schneider [direttore e flautista], Karl Kaiser [flautista], Marita Schaar [fagottista]"
FLAGS DCP
INDEX 01 48:43:17
TRACK 23 AUDIO
TITLE "Concerto TWV 53:G1 in Sol maggiore per due flauti traversieri, fagotto, archi e basso continuo - IV. Presto"
PERFORMER "La Stagione Frankfurt, Michael Schneider [direttore e flautista], Karl Kaiser [flautista], Marita Schaar [fagottista]"
FLAGS DCP
INDEX 01 51:16:49
[teatrix.ru].t9993.torrent 
Торрент: Зарегистрирован [ 2015-10-25 20:37 ] · B37932053D0EF388506D81DB70ACC9D8D6FA4D8B

Скачать .torrent

Скачать

21 KB

Статус: проверено
Скачан: 0 раз
Размер: 250 MB
terms.php



Быстрый ответ

Имя:

      
Для отправки сообщений необходимо включить JavaScript
Показать сообщения:    

Текущее время: 07-Дек 17:31

Часовой пояс: UTC + 3


Вы можете начинать темы
Вы можете отвечать на сообщения
Вы не можете редактировать свои сообщения
Вы не можете удалять свои сообщения
Вы не можете голосовать в опросах
Вы не можете прикреплять файлы к сообщениям
Вы можете скачивать файлы