(Classical) Johann Sebastian Bach - Die Brandenburgische Konzerte Nr 3-5 (Munich Chamber Orchestra - Henry Adolph) / Toccata And Fugue in D Minor (Organ - Eberhard Kraus) - 1996, FLAC (tracks+.cue) lossless


Статистика раздачи [Обновить пиров]
Размер:  356 MB   |    Зарегистрирован:  1 год 1 месяц   |    Скачан:  0 раз

Полного источника не было: Никогда

 
   
 
 
 

[Цитировать]

Johann Sebastian Bach - Brandenburg Concerto No 3-5 (Munich Chamber Orchestra - Henry Adolph) / Toccata And Fugue in D Minor (Organ - Eberhard Kraus)
Жанр: Classical
Страна-производитель диска: UK
Год издания диска: 1996
Издатель (лейбл): Apollo Classics (Newsound Ltd.)
Номер по каталогу: PYCD 304
Аудиокодек: FLAC
Тип рипа: tracks+.cue
Битрейт аудио: lossless
Продолжительность: 01:01:13
Источник: собственный рип
Сканы: есть
Треклист:
1. Brandenburg Concerto No 3 in G Major [14:01]
2. Brandenburg Concerto No 4 in G Major [17:55]
3. Brandenburg Concerto No 5 in D Major [21:34]
4. Toccata And Fugue in D Minor [07:42]
Исполнители:
Бранденбургские концерты: Munich Chamber Orchestra (Henry Adolph)
Токката и фуга: Organ - Eberhard Kraus
Одно из самых лучших и качественных исполнений Бранденбургских концертов.
-----

Отчёт EAC

Exact Audio Copy V0.99 prebeta 5 from 4. May 2009
EAC extraction logfile from 21. September 2010, 1:24
Bach / Apollo Classics
Used drive : SlimtypeDVD A DS8A1P Adapter: 1 ID: 0
Read mode : SecureUtilize accurate stream : YesDefeat audio cache : YesMake use of C2 pointers : No
Read offset correction : 594Overread into Lead-In and Lead-Out : NoFill up missing offset samples with silence : YesDelete leading and trailing silent blocks : NoNull samples used in CRC calculations : YesUsed interface : Native Win32 interface for Win NT & 2000Gap handling : Appended to previous track
Used output format : User Defined EncoderSelected bitrate : 192 kBit/sQuality : HighAdd ID3 tag : NoCommand line compressor : C:\Program Files\FLAC\flac.exeAdditional command line options : -V -5 -T "ARTIST=%a" -T "TITLE=%t" -T "ALBUM=%g" -T "DATE=%y" -T "TRACKNUMBER=%n" -T "GENRE=%m" -T "COMMENT=EAC v0.99pb5, flac.exe -V -5" %s
TOC of the extracted CD
Track | Start | Length | Start sector | End sector --------------------------------------------------------- 1 | 0:00.33 | 14:01.25 | 33 | 63132 2 | 14:01.58 | 17:55.22 | 63133 | 143779 3 | 31:57.05 | 21:33.58 | 143780 | 240812 4 | 53:30.63 | 7:42.17 | 240813 | 275479
Track 1
Filename D:\Music\Exact Audio Copy\Bach - 1996 Apollo Classics\01 Brandenburg Concerto No 3 in G Major.wav
Pre-gap length 0:00:02.33
Peak level 85.6 % Track quality 100.0 % Test CRC 8BD7EC33 Copy CRC 8BD7EC33 Track not present in AccurateRip database Copy OK
Track 2
Filename D:\Music\Exact Audio Copy\Bach - 1996 Apollo Classics\02 Brandenburg Concerto No 4 in G Major.wav
Pre-gap length 0:00:07.29
Peak level 100.0 % Track quality 100.0 % Test CRC BCA6F771 Copy CRC BCA6F771 Track not present in AccurateRip database Copy OK
Track 3
Filename D:\Music\Exact Audio Copy\Bach - 1996 Apollo Classics\03 Brandenburg Concerto No 5 in D Major.wav
Pre-gap length 0:00:06.51
Peak level 95.5 % Track quality 100.0 % Test CRC B9AA1994 Copy CRC B9AA1994 Track not present in AccurateRip database Copy OK
Track 4
Filename D:\Music\Exact Audio Copy\Bach - 1996 Apollo Classics\04 Toccata And Fugue in D Minor.wav
Pre-gap length 0:00:05.55
Peak level 57.0 % Track quality 99.9 % Test CRC B8334CAF Copy CRC B8334CAF Track not present in AccurateRip database Copy OK
None of the tracks are present in the AccurateRip database
No errors occurred
End of status report

Файл CUE

REM GENRE ClassicalREM DATE 1996REM DISCID 2D0E5904REM COMMENT "ExactAudioCopy v0.99pb5"PERFORMER "Bach"TITLE "Apollo Classics"FILE "01 Brandenburg Concerto No 3 in G Major.wav" WAVE TRACK 01 AUDIO TITLE "Brandenburg Concerto No 3 in G Major" PERFORMER "Bach" PREGAP 00:00:33 INDEX 01 00:00:00 INDEX 02 06:48:15 TRACK 02 AUDIO TITLE "Brandenburg Concerto No 4 in G Major" PERFORMER "Bach" INDEX 00 13:53:71FILE "02 Brandenburg Concerto No 4 in G Major.wav" WAVE INDEX 01 00:00:00 INDEX 02 08:00:57 INDEX 03 12:08:27 TRACK 03 AUDIO TITLE "Brandenburg Concerto No 5 in D Major" PERFORMER "Bach" INDEX 00 17:48:46FILE "03 Brandenburg Concerto No 5 in D Major.wav" WAVE INDEX 01 00:00:00 INDEX 02 09:58:65 INDEX 03 15:57:00 TRACK 04 AUDIO TITLE "Toccata And Fugue in D Minor" PERFORMER "Bach" INDEX 00 21:28:03FILE "04 Toccata And Fugue in D Minor.wav" WAVE INDEX 01 00:00:00
[teatrix.ru].t9995.torrent 
Торрент: Зарегистрирован [ 2015-10-25 20:37 ] · 36FEEF9B9472B16AC338B6CBFF935370F0E43DA1

Скачать .torrent

Скачать

15 KB

Статус: проверено
Скачан: 0 раз
Размер: 356 MB
terms.php



Быстрый ответ

Имя:

      
Для отправки сообщений необходимо включить JavaScript
Показать сообщения:    

Текущее время: 10-Дек 02:15

Часовой пояс: UTC + 3


Вы можете начинать темы
Вы можете отвечать на сообщения
Вы не можете редактировать свои сообщения
Вы не можете удалять свои сообщения
Вы не можете голосовать в опросах
Вы не можете прикреплять файлы к сообщениям
Вы можете скачивать файлы