(Classical, Concerto, Orchestral) Edgar Bainton - Concerto fantasia; 3 Pieces for Orchestra; The Golden River - 2008, FLAC (tracks+.cue) lossless


Статистика раздачи [Обновить пиров]
Размер:  259 MB   |    Зарегистрирован:  1 год 1 месяц   |    Скачан:  2 раза

Полного источника не было: 23 дня

 
   
 
 
 

[Цитировать]

Edgar Bainton - Concerto fantasia; 3 Pieces for Orchestra; The Golden River; Pavane, Idyll and Bacchanal / Margaret Fingerhut, Paul Daniel & BBC Philharmonic
Жанр: Classical, Concerto, Orchestral
Страна-производитель диска: England
Год издания диска: 2008
Издатель (лейбл): Chandos
Номер по каталогу: CHAN 10460
Дата записи: 20 - 21 September 2007
Аудиокодек: FLAC
Тип рипа: tracks+.cue
Битрейт аудио: lossless
Продолжительность: 01:08:24
Источник: скачано с
сайт-источник/ник/другое: Thanks to the original releaser
Наличие сканов в содержимом раздачи: да
Треклист:
Three Pieces for Orchestra (1916-18, revised 1919-20)
1. I Elegy. Lento, molto tranquillo - [ ] - Tempo I 4:22
2. II Intermezzo. Vivace, molto leggiero - Poco meno mosso - Tempo I 3:21
3. III Humoresque. Vivace con brio - Stringendo 2:40
Pavane, Idyll and Bacchanal (1924)
4. I Pavane. Andante - [ ] - Tempo I 2:05
5. II Idyll. Moderate, con grazia - Poco più mosso - Tempo I 3:26
6. III Bacchanal. Allegro, molto vivace, e con fuoco - [ ] - Poco meno mosso - Tempo I 3:31
The Golden River, Op. 16 (1908, revised 1912)
7. I South West Wind Esquire. Molto energico - Meno mosso - Più mosso 4:19
8. II Little Gluck. Allegretto - Meno mosso - Tempo I - Sempre ritardando 4:06
9. III The King of the Golden River. Allegro, all burla 2:13
10. IV The Golden River. Andante, molto tranquillo, ma con moto - Poco allegretto - Tempo I 5:42
Concerto fantasia (1917-20)
11.I Quasi cadenza - Adagio, molto espressivo - Doppio movimento - Adagio (quasi cadenza) - Tempo I 13:13
12.II Scherzo. Molto vivace - Poco meno mosso - Cadenza - 4:49
13.III Improvisation. Quasi cadenza. Lento - Andante moderato 6:09
14.IV Finale. Allegro, molto ritmico e risoluto - Molto più allegro - Tempo 1 - Più allegro - Cadenza 5:21
15. Epilogue. Adagio, molto espressivo 2:13
Исполнители:
Margaret Fingerhut - piano (Concerto fantasia)
Richard Davis - flute (Pavane, Idyll and Bacchanal)
Paul Daniel & BBC Philharmonic

Лог создания рипа

Exact Audio Copy V1.0 beta 3 from 29. August 2011
EAC extraction logfile from 19. January 2012, 20:13
Fingerhut, Daniel, BBCPO / Bainton: Concertino Fantasia, The Golden River, &c
Used drive : HP DVD Writer 1260t Adapter: 0 ID: 1
Read mode : SecureUtilize accurate stream : YesDefeat audio cache : YesMake use of C2 pointers : No
Read offset correction : 6Overread into Lead-In and Lead-Out : NoFill up missing offset samples with silence : YesDelete leading and trailing silent blocks : NoNull samples used in CRC calculations : YesUsed interface : Native Win32 interface for Win NT & 2000Gap handling : Appended to previous track
Used output format : User Defined EncoderSelected bitrate : 1024 kBit/sQuality : HighAdd ID3 tag : NoCommand line compressor : C:\Program Files\Exact Audio Copy\FLAC\FLAC.EXEAdditional command line options : -8 -V -T "ARTIST=%artist%" -T "TITLE=%title%" -T "ALBUM=%albumtitle%" -T "DATE=%year%" -T "TRACKNUMBER=%tracknr%" -T "GENRE=%genre%" -T "PERFORMER=%albuminterpret%" -T "COMPOSER=%composer%" %haslyrics%--tag-from-file=LYRICS="%lyricsfile%"%haslyrics% -T "ALBUMARTIST=%albumartist%" -T "DISCNUMBER=%cdnumber%" -T "TOTALDISCS=%totalcds%" -T "TOTALTRACKS=%numtracks%" -T "COMMENT=%comment%" %source% -o %dest%
TOC of the extracted CD
Track | Start | Length | Start sector | End sector --------------------------------------------------------- 1 | 0:00.00 | 4:26.48 | 0 | 19997 2 | 4:26.48 | 3:23.25 | 19998 | 35247 3 | 7:49.73 | 2:48.00 | 35248 | 47847 4 | 10:37.73 | 2:08.40 | 47848 | 57487 5 | 12:46.38 | 3:29.25 | 57488 | 73187 6 | 16:15.63 | 3:40.00 | 73188 | 89687 7 | 19:55.63 | 4:23.00 | 89688 | 109412 8 | 24:18.63 | 4:09.00 | 109413 | 128087 9 | 28:27.63 | 2:16.60 | 128088 | 138347 10 | 30:44.48 | 5:51.65 | 138348 | 164737 11 | 36:36.38 | 13:16.55 | 164738 | 224492 12 | 49:53.18 | 4:48.61 | 224493 | 246153 13 | 54:42.04 | 6:12.69 | 246154 | 274122 14 | 60:54.73 | 5:20.45 | 274123 | 298167 15 | 66:15.43 | 2:15.32 | 298168 | 308324
Track 1
Filename H:\torrent music\Bainton - Concerto Fantasia, etc\01 Three Pieces for Orchestra. I. Elegy. Lento, molto tranquillo.wav
Pre-gap length 0:00:02.00
Peak level 44.4 % Extraction speed 2.1 X Track quality 100.0 % Test CRC 1A1EB57B Copy CRC 1A1EB57B Accurately ripped (confidence 2) [392BDF11] (AR v1) Copy OK
Track 2
Filename H:\torrent music\Bainton - Concerto Fantasia, etc\02 Three Pieces for Orchestra. II. Intermezzo. Vivace, molto leggiero.wav
Pre-gap length 0:00:03.57
Peak level 25.2 % Extraction speed 2.2 X Track quality 100.0 % Test CRC 3963ADBA Copy CRC 3963ADBA Accurately ripped (confidence 2) [5C5EDBAD] (AR v1) Copy OK
Track 3
Filename H:\torrent music\Bainton - Concerto Fantasia, etc\03 Three Pieces for Orchestra. III. Humoresque. Vivace con brio.wav
Pre-gap length 0:00:03.10
Peak level 79.0 % Extraction speed 1.5 X Track quality 99.9 % Test CRC 6E5A13FC Copy CRC 6E5A13FC Accurately ripped (confidence 2) [7EDA9B73] (AR v1) Copy OK
Track 4
Filename H:\torrent music\Bainton - Concerto Fantasia, etc\04 Pavane, Idyll and Bacchanal. I. Pavane. Andante.wav
Pre-gap length 0:00:07.77
Peak level 14.2 % Extraction speed 2.2 X Track quality 100.0 % Test CRC A4AC0D65 Copy CRC A4AC0D65 Accurately ripped (confidence 2) [C974A80C] (AR v1) Copy OK
Track 5
Filename H:\torrent music\Bainton - Concerto Fantasia, etc\05 Pavane, Idyll and Bacchanal. II. Idyll. Moderato, con grazia.wav
Pre-gap length 0:00:03.30
Peak level 16.3 % Extraction speed 2.6 X Track quality 100.0 % Test CRC FA384E0B Copy CRC FA384E0B Accurately ripped (confidence 2) [6CE0DCDB] (AR v1) Copy OK
Track 6
Filename H:\torrent music\Bainton - Concerto Fantasia, etc\06 Pavane, Idyll and Bacchanal. III. Bacchanal. Allegro, molto vivace, e con fuoco.wav
Pre-gap length 0:00:03.10
Peak level 44.1 % Extraction speed 2.7 X Track quality 100.0 % Test CRC 2600EBFE Copy CRC 2600EBFE Accurately ripped (confidence 2) [EE634C05] (AR v1) Copy OK
Track 7
Filename H:\torrent music\Bainton - Concerto Fantasia, etc\07 The Golden River. I. South West Wind Esquire. Molto energico.wav
Pre-gap length 0:00:08.77
Peak level 100.0 % Extraction speed 3.0 X Track quality 100.0 % Test CRC 9984B914 Copy CRC 9984B914 Accurately ripped (confidence 2) [F0F8AD10] (AR v1) Copy OK
Track 8
Filename H:\torrent music\Bainton - Concerto Fantasia, etc\08 The Golden River. II. Little Gluck. Allegretto.wav
Pre-gap length 0:00:03.77
Peak level 31.1 % Extraction speed 2.3 X Track quality 99.9 % Test CRC 4EAF5B4B Copy CRC 4EAF5B4B Accurately ripped (confidence 2) [5D6E77DF] (AR v1) Copy OK
Track 9
Filename H:\torrent music\Bainton - Concerto Fantasia, etc\09 The Golden River. III. The King of the Golden River. Allegro, alla burla.wav
Pre-gap length 0:00:02.77
Peak level 47.6 % Extraction speed 1.8 X Track quality 99.9 % Test CRC FBCA59C1 Copy CRC FBCA59C1 Accurately ripped (confidence 2) [C56A9BD8] (AR v1) Copy OK
Track 10
Filename H:\torrent music\Bainton - Concerto Fantasia, etc\10 The Golden River. IV. The Golden River. Andante, molto tranquillo, ma con moto.wav
Pre-gap length 0:00:03.57
Peak level 98.6 % Extraction speed 3.5 X Track quality 100.0 % Test CRC 814DC29C Copy CRC 814DC29C Accurately ripped (confidence 2) [3C7351DB] (AR v1) Copy OK
Track 11
Filename H:\torrent music\Bainton - Concerto Fantasia, etc\11 Concerto fantasia. I. Quasi cadenza.wav
Pre-gap length 0:00:09.64
Peak level 59.1 % Extraction speed 4.0 X Track quality 100.0 % Test CRC 611AF000 Copy CRC 611AF000 Accurately ripped (confidence 2) [C95515BB] (AR v1) Copy OK
Track 12
Filename H:\torrent music\Bainton - Concerto Fantasia, etc\12 Concerto fantasia. II. Scherzo. Molto vivace.wav
Pre-gap length 0:00:03.50
Peak level 43.0 % Extraction speed 3.0 X Track quality 99.9 % Test CRC 9679C892 Copy CRC 9679C892 Accurately ripped (confidence 2) [31F3E43D] (AR v1) Copy OK
Track 13
Filename H:\torrent music\Bainton - Concerto Fantasia, etc\13 Concerto fantasia. III. Improvisation. Quasi cadenza. Lento.wav
Peak level 30.8 % Extraction speed 4.2 X Track quality 100.0 % Test CRC 0A510C2A Copy CRC 0A510C2A Accurately ripped (confidence 2) [879C0DFD] (AR v1) Copy OK
Track 14
Filename H:\torrent music\Bainton - Concerto Fantasia, etc\14 Concerto fantasia. IV. Finale. Allegro, molto ritmico e risoluto.wav
Pre-gap length 0:00:03.69
Peak level 70.0 % Extraction speed 4.3 X Track quality 100.0 % Test CRC 036323A0 Copy CRC 036323A0 Accurately ripped (confidence 2) [0128B3B2] (AR v1) Copy OK
Track 15
Filename H:\torrent music\Bainton - Concerto Fantasia, etc\15 Concerto fantasia. Epilogue. Adagio, molto espressivo.wav
Peak level 24.5 % Extraction speed 2.3 X Track quality 99.9 % Test CRC 8B3E19D3 Copy CRC 8B3E19D3 Accurately ripped (confidence 2) [A27C6EC9] (AR v1) Copy OK
All tracks accurately ripped
No errors occurred
End of status report
==== Log checksum 09297F61BB1721D8A27428082FF590741F00FDE29B64755E385CA605361F848A ====

Содержание индексной карты (.CUE)

REM GENRE ClassicalREM DATE 2008REM DISCID 0A100F0FREM COMMENT "ExactAudioCopy v1.0b3"PERFORMER "Fingerhut, Daniel, BBCPO"TITLE "Bainton: Concertino Fantasia, The Golden River, &c"FILE "01 Three Pieces for Orchestra. I. Elegy. Lento, molto tranquillo.wav" WAVE TRACK 01 AUDIO TITLE "Three Pieces for Orchestra. I. Elegy. Lento, molto tranquillo" PERFORMER "Fingerhut, Daniel, BBCPO" ISRC GBLWD0803101 INDEX 01 00:00:00 TRACK 02 AUDIO TITLE "Three Pieces for Orchestra. II. Intermezzo. Vivace, molto leggiero" PERFORMER "Fingerhut, Daniel, BBCPO" ISRC GBLWD0803102 INDEX 00 04:23:05FILE "02 Three Pieces for Orchestra. II. Intermezzo. Vivace, molto leggiero.wav" WAVE INDEX 01 00:00:00 TRACK 03 AUDIO TITLE "Three Pieces for Orchestra. III. Humoresque. Vivace con brio" PERFORMER "Fingerhut, Daniel, BBCPO" ISRC GBLWD0803103 INDEX 00 03:20:17FILE "03 Three Pieces for Orchestra. III. Humoresque. Vivace con brio.wav" WAVE INDEX 01 00:00:00 TRACK 04 AUDIO TITLE "Pavane, Idyll and Bacchanal. I. Pavane. Andante" PERFORMER "Fingerhut, Daniel, BBCPO" ISRC GBLWD0803104 INDEX 00 02:40:17FILE "04 Pavane, Idyll and Bacchanal. I. Pavane. Andante.wav" WAVE INDEX 01 00:00:00 TRACK 05 AUDIO TITLE "Pavane, Idyll and Bacchanal. II. Idyll. Moderato, con grazia" PERFORMER "Fingerhut, Daniel, BBCPO" ISRC GBLWD0803105 INDEX 00 02:05:17FILE "05 Pavane, Idyll and Bacchanal. II. Idyll. Moderato, con grazia.wav" WAVE INDEX 01 00:00:00 TRACK 06 AUDIO TITLE "Pavane, Idyll and Bacchanal. III. Bacchanal. Allegro, molto vivace, e con fuoco" PERFORMER "Fingerhut, Daniel, BBCPO" ISRC GBLWD0803106 INDEX 00 03:26:17FILE "06 Pavane, Idyll and Bacchanal. III. Bacchanal. Allegro, molto vivace, e con fuoco.wav" WAVE INDEX 01 00:00:00 TRACK 07 AUDIO TITLE "The Golden River. I. South West Wind Esquire. Molto energico" PERFORMER "Fingerhut, Daniel, BBCPO" ISRC GBLWD0803107 INDEX 00 03:31:17FILE "07 The Golden River. I. South West Wind Esquire. Molto energico.wav" WAVE INDEX 01 00:00:00 TRACK 08 AUDIO TITLE "The Golden River. II. Little Gluck. Allegretto" PERFORMER "Fingerhut, Daniel, BBCPO" ISRC GBLWD0803108 INDEX 00 04:19:17FILE "08 The Golden River. II. Little Gluck. Allegretto.wav" WAVE INDEX 01 00:00:00 TRACK 09 AUDIO TITLE "The Golden River. III. The King of the Golden River. Allegro, alla burla" PERFORMER "Fingerhut, Daniel, BBCPO" ISRC GBLWD0803109 INDEX 00 04:06:17FILE "09 The Golden River. III. The King of the Golden River. Allegro, alla burla.wav" WAVE INDEX 01 00:00:00 TRACK 10 AUDIO TITLE "The Golden River. IV. The Golden River. Andante, molto tranquillo, ma con moto" PERFORMER "Fingerhut, Daniel, BBCPO" ISRC GBLWD0803110 INDEX 00 02:13:17FILE "10 The Golden River. IV. The Golden River. Andante, molto tranquillo, ma con moto.wav" WAVE INDEX 01 00:00:00 TRACK 11 AUDIO TITLE "Concerto fantasia. I. Quasi cadenza" PERFORMER "Fingerhut, Daniel, BBCPO" ISRC GBLWD0803111 INDEX 00 05:42:17FILE "11 Concerto fantasia. I. Quasi cadenza.wav" WAVE INDEX 01 00:00:00 TRACK 12 AUDIO TITLE "Concerto fantasia. II. Scherzo. Molto vivace" PERFORMER "Fingerhut, Daniel, BBCPO" ISRC GBLWD0803112 INDEX 00 13:13:17FILE "12 Concerto fantasia. II. Scherzo. Molto vivace.wav" WAVE INDEX 01 00:00:00FILE "13 Concerto fantasia. III. Improvisation. Quasi cadenza. Lento.wav" WAVE TRACK 13 AUDIO TITLE "Concerto fantasia. III. Improvisation. Quasi cadenza. Lento" PERFORMER "Fingerhut, Daniel, BBCPO" ISRC GBLWD0803113 INDEX 01 00:00:00 TRACK 14 AUDIO TITLE "Concerto fantasia. IV. Finale. Allegro, molto ritmico e risoluto" PERFORMER "Fingerhut, Daniel, BBCPO" ISRC GBLWD0803114 INDEX 00 06:09:17FILE "14 Concerto fantasia. IV. Finale. Allegro, molto ritmico e risoluto.wav" WAVE INDEX 01 00:00:00FILE "15 Concerto fantasia. Epilogue. Adagio, molto espressivo.wav" WAVE TRACK 15 AUDIO TITLE "Concerto fantasia. Epilogue. Adagio, molto espressivo" PERFORMER "Fingerhut, Daniel, BBCPO" ISRC GBLWD0803115 INDEX 01 00:00:00

Dynamic Range Meter

foobar2000 1.2.2 / Dynamic Range Meter 1.1.1log date: 2013-11-06 17:56:31
--------------------------------------------------------------------------------Analyzed: Fingerhut, Daniel, BBCPO / Bainton: Concertino Fantasia, The Golden River, &c--------------------------------------------------------------------------------
DR Peak RMS Duration Track--------------------------------------------------------------------------------DR14 -7.05 dB -29.12 dB 4:27 01-Three Pieces for Orchestra. I. Elegy. Lento, molto tranquilloDR12 -11.97 dB -30.87 dB 3:23 02-Three Pieces for Orchestra. II. Intermezzo. Vivace, molto leggieroDR13 -2.05 dB -22.27 dB 2:48 03-Three Pieces for Orchestra. III. Humoresque. Vivace con brioDR13 -16.94 dB -35.35 dB 2:09 04-Pavane, Idyll and Bacchanal. I. Pavane. AndanteDR15 -15.72 dB -36.93 dB 3:29 05-Pavane, Idyll and Bacchanal. II. Idyll. Moderato, con graziaDR13 -7.10 dB -25.96 dB 3:40 06-Pavane, Idyll and Bacchanal. III. Bacchanal. Allegro, molto vivace, e con fuocoDR15 0.00 dB -20.54 dB 4:23 07-The Golden River. I. South West Wind Esquire. Molto energicoDR15 -10.13 dB -32.34 dB 4:09 08-The Golden River. II. Little Gluck. AllegrettoDR15 -6.45 dB -29.41 dB 2:17 09-The Golden River. III. The King of the Golden River. Allegro, alla burlaDR16 -0.12 dB -23.48 dB 5:52 10-The Golden River. IV. The Golden River. Andante, molto tranquillo, ma con motoDR16 -4.56 dB -27.31 dB 13:17 11-Concerto fantasia. I. Quasi cadenzaDR13 -7.33 dB -26.21 dB 4:49 12-Concerto fantasia. II. Scherzo. Molto vivaceDR16 -10.23 dB -32.26 dB 6:13 13-Concerto fantasia. III. Improvisation. Quasi cadenza. LentoDR14 -3.10 dB -23.23 dB 5:21 14-Concerto fantasia. IV. Finale. Allegro, molto ritmico e risolutoDR14 -12.21 dB -31.73 dB 2:15 15-Concerto fantasia. Epilogue. Adagio, molto espressivo--------------------------------------------------------------------------------
Number of tracks: 15Official DR value: DR14
Samplerate: 44100 HzChannels: 2Bits per sample: 16Bitrate: 441 kbpsCodec: FLAC================================================================================
Доп. информация: Edgar Leslie Bainton (1880-1956)
[teatrix.ru].t9996.torrent 
Торрент: Зарегистрирован [ 2015-10-25 20:37 ] · 1C5AD00A37BCF063042FCA4226EDD3C3FA8CA1D8

Скачать .torrent

Скачать

12 KB

Статус: проверено
Скачан: 2 раз
Размер: 259 MB
terms.php



Быстрый ответ

Имя:

      
Для отправки сообщений необходимо включить JavaScript
Показать сообщения:    

Текущее время: 08-Дек 03:15

Часовой пояс: UTC + 3


Вы можете начинать темы
Вы можете отвечать на сообщения
Вы не можете редактировать свои сообщения
Вы не можете удалять свои сообщения
Вы не можете голосовать в опросах
Вы не можете прикреплять файлы к сообщениям
Вы можете скачивать файлы