(Classical) Samuel Barber - Cello Concerto; Cello Sonata; Adagio - Christian Poltera, Kathryn Stott, Bergen Philharmonic Orchestra, Andrew Litton - 2012, FLAC (image+.cue) lossless


Статистика раздачи [Обновить пиров]
Размер:  219 MB   |    Зарегистрирован:  1 год 1 месяц   |    Скачан:  0 раз

Полного источника не было: Никогда

 
   
 
 
 

[Цитировать]

Samuel Barber - Cello Concerto; Cello Sonata - Christian Poltéra, Kathryn Stott, Bergen Philharmonic Orchestra, Andrew Litton
Жанр: Classical
Страна-производитель диска: Sweden
Год издания диска: 2012
Издатель (лейбл): BIS
Номер по каталогу: BIS-SACD-1827
Дата записи: 2009,2012
Аудиокодек: FLAC
Тип рипа: image+.cue
Битрейт аудио: lossless
Продолжительность: 54:13
Источник: собственный рип
Наличие сканов в содержимом раздачи: да
Треклист:
Samuel Barber (1910-1981)
[1]-[3] Concerto for Cello and Orchestra, Op.22
[4]-[6] Sonata for Cello and Piano, Op.6
[7] Adagio for Strings, Op.11
Исполнители:
Christian Poltéra cello
Bergen Philharmonic Orchestra
Andrew Litton
conductor
Kathryn Stott piano

Лог создания рипа

Exact Audio Copy V1.0 beta 3 from 29. August 2011
EAC extraction logfile from 11. October 2013, 17:27
Christian Poltera / Barber - Cello Concerto; Cello Sonata
Used drive : HL-DT-STDVDRRW GWA-4164B Adapter: 5 ID: 0
Read mode : SecureUtilize accurate stream : YesDefeat audio cache : YesMake use of C2 pointers : No
Read offset correction : 102Overread into Lead-In and Lead-Out : NoFill up missing offset samples with silence : YesDelete leading and trailing silent blocks : NoNull samples used in CRC calculations : YesUsed interface : Native Win32 interface for Win NT & 2000
Used output format : User Defined EncoderSelected bitrate : 896 kBit/sQuality : HighAdd ID3 tag : NoCommand line compressor : C:\Program Files\Exact Audio Copy\FLAC\FLAC.EXEAdditional command line options : -V -8 %source%
TOC of the extracted CD
Track | Start | Length | Start sector | End sector --------------------------------------------------------- 1 | 0:00.00 | 11:57.16 | 0 | 53790 2 | 11:57.16 | 6:27.34 | 53791 | 82849 3 | 18:24.50 | 8:34.42 | 82850 | 121441 4 | 26:59.17 | 8:04.05 | 121442 | 157746 5 | 35:03.22 | 4:10.36 | 157747 | 176532 6 | 39:13.58 | 5:57.66 | 176533 | 203373 7 | 45:11.49 | 9:01.29 | 203374 | 243977
Range status and errors
Selected range
Filename D:\temp\Music\Barber - Cello Concerto; Cello Sonata (Poltera, Stott, Bergen Philharmonic Orchestra, Litton)\Barber - Cello Concerto; Cello Sonata.wav
Peak level 97.9 % Extraction speed 2.9 X Range quality 100.0 % Test CRC C31C55DC Copy CRC C31C55DC Copy OK
No errors occurred
AccurateRip summary
Track 1 accurately ripped (confidence 3) [9B0D1CBE] (AR v2)Track 2 accurately ripped (confidence 3) [30E26643] (AR v2)Track 3 accurately ripped (confidence 3) [5CAD75F3] (AR v2)Track 4 accurately ripped (confidence 3) [65269C5F] (AR v2)Track 5 accurately ripped (confidence 3) [AADBF620] (AR v2)Track 6 accurately ripped (confidence 3) [4AD51B1F] (AR v2)Track 7 accurately ripped (confidence 3) [4270054A] (AR v2)
All tracks accurately ripped
End of status report
==== Log checksum F9CCAD91E2A87C0ACE9DAD0FC799E6B2E2F55875DF3143F7EB4046E5E025131A ====
[teatrix.ru].t9997.torrent 
Торрент: Зарегистрирован [ 2015-10-25 20:37 ] · 414CC3F1D93F6E099DD4CC5055004283B95C98FC

Скачать .torrent

Скачать

36 KB

Статус: проверено
Скачан: 0 раз
Размер: 219 MB
terms.php



Быстрый ответ

Имя:

      
Для отправки сообщений необходимо включить JavaScript
Показать сообщения:    

Текущее время: 07-Дек 13:40

Часовой пояс: UTC + 3


Вы можете начинать темы
Вы можете отвечать на сообщения
Вы не можете редактировать свои сообщения
Вы не можете удалять свои сообщения
Вы не можете голосовать в опросах
Вы не можете прикреплять файлы к сообщениям
Вы можете скачивать файлы