(Classical, Baroque, Oboe) Antonio Vivaldi - Oboe Concertos. Vol. 3 [Neues Bachisches Collegium Musicum Leipzig, Max Pommer, Burkhard Glaetzner, Ingo Goritzki], Capriccio 1990, FLAC (image+.cue), lossless


Статистика раздачи [Обновить пиров]
Размер:  268 MB   |    Зарегистрирован:  1 год 1 месяц   |    Скачан:  0 раз

Полного источника не было: Никогда

 
   
 
 
 

[Цитировать]

Antonio Vivaldi
Concerti per oboe. Tomo Terzo.
RV 450, 457, 463, 534, 535, 536

Концерты для гобоя. Том Третий.-- Жанр: Classical, Baroque, Oboe
Страна-производитель диска: Germany
Год издания: 1990
Лейбл: Capriccio
Номер в каталоге: 10 317
Аудиокодек: FLAC
Тип рипа: image+.cue
Битрейт аудио: lossless
Продолжительность: 00:56:31
Наличие сканов: имеются
Источник: релизёр
-Neues Bachisches Collegium Musicum Leipzig
Max Pommer direttore
Burkhard Glaetzner ed Ingo Goritzki oboisti

Треклист

01. Concerto RV 450 in Do maggiore per oboe, archi e basso continuo - I. Allegro molto [00:04:08]
02. II. Larghetto [00:02:45]
03. III. Allegro [00:02:59]
04. Concerto RV 534 in Do maggiore per due oboi, archi e basso continuo - I. Allegro [00:02:52]
05. II. Largo [00:03:15]
06. III. Allegro [00:02:38]
07. Concerto RV 457 in Fa maggiore per oboe, archi e basso continuo - I. Allegro non molto [00:04:49]
08. II. Andante [00:03:00]
09. III. Allegro molto [00:02:59]
10. Concerto RV 535 in Re minore per due oboi, archi e basso continuo - I. Largo [00:01:41]
11. II. Allegro [00:02:32]
12. III. Largo [00:02:40]
13. IV. Allegro molto [00:02:55]
14. Concerto RV 463 in La minore per oboe, archi e basso continuo - I. Allegro [00:03:27]
15. II. [Largo] [00:03:23]
16. III. Allegro [00:02:56]
17. Concerto RV 536 in La minore per due oboi, archi e basso continuo - I. [Senza indicazione di tempo] [00:03:16]
18. II. Largo [00:02:12]
19. III. Allegro [00:01:56]

LOG EAC

Exact Audio Copy V1.0 beta 3 from 29. August 2011
EAC extraction logfile from 25. September 2013, 20:46
Neues Bachisches Collegium Musicum Leipzig, Max Pommer [direttore], Burkhard Glaetzner [oboista] / Vivaldi. Concerti per oboe. Tomo Terzo [Capriccio 1990]
Used drive : TSSTcorpCDDVDW SH-222BB Adapter: 2 ID: 1
Read mode : Secure
Utilize accurate stream : Yes
Defeat audio cache : Yes
Make use of C2 pointers : No
Read offset correction : 6
Overread into Lead-In and Lead-Out : No
Fill up missing offset samples with silence : Yes
Delete leading and trailing silent blocks : No
Null samples used in CRC calculations : Yes
Used interface : Native Win32 interface for Win NT & 2000
Used output format : User Defined Encoder
Selected bitrate : 1024 kBit/s
Quality : High
Add ID3 tag : No
Command line compressor : C:\Program Files\Exact Audio Copy\Flac\flac.exe
Additional command line options : -8 -V -T "TITLE=%title%" -T "ARTIST=%artist%" -T "ALBUMARTIST=%albumartist%" -T "ALBUM=%albumtitle%" -T "DATE=%year%" -T "TRACKNUMBER=%tracknr%" -T "TRACKTOTAL=%numtracks%" -T "GENRE=%genre%" -T "COMMENT=%comment%" -T "PERFORMER=%albuminterpret%" -T "COMPOSER=%composer%" %source% -o %dest%
TOC of the extracted CD
Track | Start | Length | Start sector | End sector
---------------------------------------------------------
1 | 0:00.38 | 4:08.10 | 38 | 18647
2 | 4:08.48 | 2:45.07 | 18648 | 31029
3 | 6:53.55 | 3:03.60 | 31030 | 44814
4 | 9:57.40 | 2:52.73 | 44815 | 57787
5 | 12:50.38 | 3:15.20 | 57788 | 72432
6 | 16:05.58 | 2:42.57 | 72433 | 84639
7 | 18:48.40 | 4:49.00 | 84640 | 106314
8 | 23:37.40 | 3:00.45 | 106315 | 119859
9 | 26:38.10 | 3:03.68 | 119860 | 133652
10 | 29:42.03 | 1:41.57 | 133653 | 141284
11 | 31:23.60 | 2:32.20 | 141285 | 152704
12 | 33:56.05 | 2:40.30 | 152705 | 164734
13 | 36:36.35 | 3:00.05 | 164735 | 178239
14 | 39:36.40 | 3:27.73 | 178240 | 193837
15 | 43:04.38 | 3:23.20 | 193838 | 209082
16 | 46:27.58 | 3:01.57 | 209083 | 222714
17 | 49:29.40 | 3:16.38 | 222715 | 237452
18 | 52:46.03 | 2:12.67 | 237453 | 247419
19 | 54:58.70 | 1:56.18 | 247420 | 256137
Range status and errors
Selected range
Filename D:\Vivaldi\Vivaldi. Concerti per oboe. Tomo Terzo [Capriccio 1990]\Vivaldi. Concerti per oboe. Tomo Terzo [Capriccio 1990].wav
Peak level 73.4 %
Extraction speed 2.3 X
Range quality 100.0 %
Test CRC 4A886CE9
Copy CRC 4A886CE9
Copy OK
No errors occurred
AccurateRip summary
Track 1 accurately ripped (confidence 8) [2EF82355] (AR v2)
Track 2 accurately ripped (confidence 8) [D3AC3E21] (AR v2)
Track 3 accurately ripped (confidence 8) [265311C5] (AR v2)
Track 4 accurately ripped (confidence 8) [11576B89] (AR v2)
Track 5 accurately ripped (confidence 8) [96F26556] (AR v2)
Track 6 accurately ripped (confidence 8) [125D56C3] (AR v2)
Track 7 accurately ripped (confidence 8) [4C23ABE8] (AR v2)
Track 8 accurately ripped (confidence 8) [05DD0983] (AR v2)
Track 9 accurately ripped (confidence 8) [DC9CB607] (AR v2)
Track 10 accurately ripped (confidence 8) [FB36D2EA] (AR v2)
Track 11 accurately ripped (confidence 8) [CC8FD404] (AR v2)
Track 12 accurately ripped (confidence 8) [F62A6F65] (AR v2)
Track 13 accurately ripped (confidence 8) [AB3861C9] (AR v2)
Track 14 accurately ripped (confidence 8) [1BF71D05] (AR v2)
Track 15 accurately ripped (confidence 8) [0768FCF9] (AR v2)
Track 16 accurately ripped (confidence 8) [880B14C9] (AR v2)
Track 17 accurately ripped (confidence 8) [5CDF1981] (AR v2)
Track 18 accurately ripped (confidence 8) [3C7F72A1] (AR v2)
Track 19 accurately ripped (confidence 8) [CE6B6325] (AR v2)
All tracks accurately ripped
End of status report

.CUE

REM GENRE Musica barocca
REM DISCID 250D5713
REM COMMENT "TitoManlio"
PERFORMER "Neues Bachisches Collegium Musicum Leipzig, Max Pommer [direttore], Burkhard Glaetzner [oboista]"
TITLE "Vivaldi. Concerti per oboe. Tomo Terzo [Capriccio 1990]."
FILE "Vivaldi. Concerti per oboe. Tomo Terzo [Capriccio 1990].flac" WAVE
TRACK 01 AUDIO
TITLE "Concerto RV 450 in Do maggiore per oboe, archi e basso continuo - I. Allegro molto"
PERFORMER "Neues Bachisches Collegium Musicum Leipzig, Max Pommer [direttore], Burkhard Glaetzner [oboista]"
INDEX 00 00:00:00
INDEX 01 00:00:38
TRACK 02 AUDIO
TITLE "Concerto RV 450 in Do maggiore per oboe, archi e basso continuo - II. Larghetto"
PERFORMER "Neues Bachisches Collegium Musicum Leipzig, Max Pommer [direttore], Burkhard Glaetzner [oboista]"
INDEX 01 04:08:48
TRACK 03 AUDIO
TITLE "Concerto RV 450 in Do maggiore per oboe, archi e basso continuo - III. Allegro"
PERFORMER "Neues Bachisches Collegium Musicum Leipzig, Max Pommer [direttore], Burkhard Glaetzner [oboista]"
INDEX 01 06:53:55
TRACK 04 AUDIO
TITLE "Concerto RV 534 in Do maggiore per due oboi, archi e basso continuo - I. Allegro"
PERFORMER "Neues Bachisches Collegium Musicum Leipzig, Max Pommer [direttore], Burkhard Glaetzner ed Ingo Goritzki [oboisti]"
INDEX 00 09:53:14
INDEX 01 09:57:40
TRACK 05 AUDIO
TITLE "Concerto RV 534 in Do maggiore per due oboi, archi e basso continuo - II. Largo"
PERFORMER "Neues Bachisches Collegium Musicum Leipzig, Max Pommer [direttore], Burkhard Glaetzner ed Ingo Goritzki [oboisti]"
INDEX 01 12:50:38
TRACK 06 AUDIO
TITLE "Concerto RV 534 in Do maggiore per due oboi, archi e basso continuo - III. Allegro"
PERFORMER "Neues Bachisches Collegium Musicum Leipzig, Max Pommer [direttore], Burkhard Glaetzner ed Ingo Goritzki [oboisti]"
INDEX 01 16:05:58
TRACK 07 AUDIO
TITLE "Concerto RV 457 in Fa maggiore per oboe, archi e basso continuo - I. Allegro non molto"
PERFORMER "Neues Bachisches Collegium Musicum Leipzig, Max Pommer [direttore], Burkhard Glaetzner [oboista]"
INDEX 00 18:44:38
INDEX 01 18:48:40
TRACK 08 AUDIO
TITLE "Concerto RV 457 in Fa maggiore per oboe, archi e basso continuo - II. Andante"
PERFORMER "Neues Bachisches Collegium Musicum Leipzig, Max Pommer [direttore], Burkhard Glaetzner [oboista]"
INDEX 01 23:37:40
TRACK 09 AUDIO
TITLE "Concerto RV 457 in Fa maggiore per oboe, archi e basso continuo - III. Allegro molto"
PERFORMER "Neues Bachisches Collegium Musicum Leipzig, Max Pommer [direttore], Burkhard Glaetzner [oboista]"
INDEX 01 26:38:10
TRACK 10 AUDIO
TITLE "Concerto RV 535 in Re minore per due oboi, archi e basso continuo - I. Largo"
PERFORMER "Neues Bachisches Collegium Musicum Leipzig, Max Pommer [direttore], Burkhard Glaetzner ed Ingo Goritzki [oboisti]"
INDEX 00 29:37:70
INDEX 01 29:42:03
TRACK 11 AUDIO
TITLE "Concerto RV 535 in Re minore per due oboi, archi e basso continuo - II. Allegro"
PERFORMER "Neues Bachisches Collegium Musicum Leipzig, Max Pommer [direttore], Burkhard Glaetzner ed Ingo Goritzki [oboisti]"
INDEX 01 31:23:60
TRACK 12 AUDIO
TITLE "Concerto RV 535 in Re minore per due oboi, archi e basso continuo - III. Largo"
PERFORMER "Neues Bachisches Collegium Musicum Leipzig, Max Pommer [direttore], Burkhard Glaetzner ed Ingo Goritzki [oboisti]"
INDEX 01 33:56:05
TRACK 13 AUDIO
TITLE "Concerto RV 535 in Re minore per due oboi, archi e basso continuo - IV. Allegro molto"
PERFORMER "Neues Bachisches Collegium Musicum Leipzig, Max Pommer [direttore], Burkhard Glaetzner ed Ingo Goritzki [oboisti]"
INDEX 01 36:36:35
TRACK 14 AUDIO
TITLE "Concerto RV 463 in La minore per oboe, archi e basso continuo - I. Allegro"
PERFORMER "Neues Bachisches Collegium Musicum Leipzig, Max Pommer [direttore], Burkhard Glaetzner [oboista]"
INDEX 00 39:31:65
INDEX 01 39:36:40
TRACK 15 AUDIO
TITLE "Concerto RV 463 in La minore per oboe, archi e basso continuo - II. [Largo]"
PERFORMER "Neues Bachisches Collegium Musicum Leipzig, Max Pommer [direttore], Burkhard Glaetzner [oboista]"
INDEX 01 43:04:38
TRACK 16 AUDIO
TITLE "Concerto RV 463 in La minore per oboe, archi e basso continuo - III. Allegro"
PERFORMER "Neues Bachisches Collegium Musicum Leipzig, Max Pommer [direttore], Burkhard Glaetzner [oboista]"
INDEX 01 46:27:58
TRACK 17 AUDIO
TITLE "Concerto RV 536 in La minore per due oboi, archi e basso continuo - I. [Senza indicazione di tempo]"
PERFORMER "Neues Bachisches Collegium Musicum Leipzig, Max Pommer [direttore], Burkhard Glaetzner ed Ingo Goritzki [oboisti]"
INDEX 00 49:23:70
INDEX 01 49:29:40
TRACK 18 AUDIO
TITLE "Concerto RV 536 in La minore per due oboi, archi e basso continuo - II. Largo"
PERFORMER "Neues Bachisches Collegium Musicum Leipzig, Max Pommer [direttore], Burkhard Glaetzner ed Ingo Goritzki [oboisti]"
INDEX 01 52:46:03
TRACK 19 AUDIO
TITLE "Concerto RV 536 in La minore per due oboi, archi e basso continuo - III. Allegro"
PERFORMER "Neues Bachisches Collegium Musicum Leipzig, Max Pommer [direttore], Burkhard Glaetzner ed Ingo Goritzki [oboisti]"
INDEX 01 54:58:70
[teatrix.ru].t9998.torrent 
Торрент: Зарегистрирован [ 2015-10-25 20:37 ] · 0AE6BE1F8EFF5A728E772D8ED3288253F929919C

Скачать .torrent

Скачать

12 KB

Статус: проверено
Скачан: 0 раз
Размер: 268 MB
terms.php



Быстрый ответ

Имя:

      
Для отправки сообщений необходимо включить JavaScript
Показать сообщения:    

Текущее время: 08-Дек 07:09

Часовой пояс: UTC + 3


Вы можете начинать темы
Вы можете отвечать на сообщения
Вы не можете редактировать свои сообщения
Вы не можете удалять свои сообщения
Вы не можете голосовать в опросах
Вы не можете прикреплять файлы к сообщениям
Вы можете скачивать файлы